HomePage - Come attivare il proprio account - Regole del Forum

HOT NEWS!!!

Adele - Greatest Hits (2012).Flac

Rogue one-a Star Wars story (2016)


Rogue One A Star Wars Story il primo capitolo di una nuova avventurosa serie cinematografica che esplora i personaggi e gli eventi che ruotano intorno alla saga di Guerre Stellari.


1080p
720p
UNTOUCHED-1080p
BLURAY FULL
BLURAY FULL 3D
Adele - Greatest Hits (2012).Flac


Avviso a tutti i lettori di mondowarezz.Le sezioni Ebook,Quotidiani e Riviste.Sono momentaneamente chiuse.Vi preghiamo di non intasare la chatbox con le stesse domande.Grazie
Risultati da 1 a 1 di 1
  1. #1
    Status
    Offline
    L'avatar di bobsax
    Data Registrazione

    19.05.2013

    Messaggi

    1,803

    Ha ringraziato
    0 volte
    Ha Ricevuto 23,233 ringraziamenti in 1,485 discussioni volte
    Taggato
    0 Post(s)

    Adele - Greatest Hits (2012).Flac



    Adele - Greatest Hits (2012).Flac







    Adele - Greatest Hits (2012)
    Pop Soul | 1 Cd | 20 Track
    EAC Rip | Cue + Log + M3u + Cover
    Size 495 Mb




    TRACKLIST
    *********************************************


    Adele - Chasing Pavements
    Adele - Cold Shoulder
    Adele - Dont You Remember
    Adele - Hometown Glory
    Adele - I Can't Make You Love Me [Live At The Royal Albert Hall]
    Adele - If It Hadn't Been For Love [Live At The Royal Albert Hall]
    Adele - Ill Be Waiting
    Adele - Love Song
    Adele - Make You Feel My Love
    Adele - Many Shades Of Black
    Adele - Melt My Heart To Stone
    Adele - My Same
    Adele - One And Only
    Adele - Right As Rain
    Adele - Rolling In The Deep
    Adele - Rumour Has It
    Adele - Set Fire To The Rain
    Adele - Skyfall
    Adele - Someone Like You
    Adele - Turning Tabels






    REPORT .LOG
    *********************************************
     

    Exact Audio Copy V1.0 beta 3 from 29. August 2011


    EAC extraction logfile from 29. May 2013, 12:23


    Adele / Greatest Hits [CD]


    Used drive : Optiarc DVD RW AD-7240S Adapter: 1 ID: 1


    Read mode : Secure
    Utilize accurate stream : Yes
    Defeat audio cache : Yes
    Make use of C2 pointers : No


    Read offset correction : 48
    Overread into Lead-In and Lead-Out : No
    Fill up missing offset samples with silence : Yes
    Delete leading and trailing silent blocks : No
    Null samples used in CRC calculations : Yes
    Used interface : Native Win32 interface for Win NT & 2000


    Used output format : User Defined Encoder
    Selected bitrate : 896 kBit/s
    Quality : High
    Add ID3 tag : No
    Command line compressor : C:\Program Files\Exact Audio Copy\Flac\flac.exe
    Additional command line options : -V -8 -T "Genre=%genre%" -T "Artist=%artist%" -T "Title=%title%" -T "Album=%albumtitle%" -T "Date=%year%" -T "Tracknumber=%tracknr%" -T "Comment=%comment%" %source%




    TOC of the extracted CD


    Track | Start | Length | Start sector | End sector
    ---------------------------------------------------------
    1 | 0:00.00 | 4:44.46 | 0 | 21345
    2 | 4:44.46 | 3:49.22 | 21346 | 38542
    3 | 8:33.68 | 4:01.49 | 38543 | 56666
    4 | 12:35.42 | 3:30.38 | 56667 | 72454
    5 | 16:06.05 | 4:44.02 | 72455 | 93756
    6 | 20:50.07 | 4:27.01 | 93757 | 113782
    7 | 25:17.08 | 4:01.52 | 113783 | 131909
    8 | 29:18.60 | 3:32.03 | 131910 | 147812
    9 | 32:50.63 | 5:16.21 | 147813 | 171533
    10 | 38:07.09 | 4:26.17 | 171534 | 191500
    11 | 42:33.26 | 3:43.20 | 191501 | 208245
    12 | 46:16.46 | 3:17.26 | 208246 | 223046
    13 | 49:33.72 | 4:09.01 | 223047 | 241722
    14 | 53:42.73 | 3:23.68 | 241723 | 257015
    15 | 57:06.66 | 5:47.02 | 257016 | 283042
    16 | 62:53.68 | 3:11.65 | 283043 | 297432
    17 | 66:05.58 | 3:13.66 | 297433 | 311973
    18 | 69:19.49 | 4:00.04 | 311974 | 329977
    19 | 73:19.53 | 3:06.54 | 329978 | 343981
    20 | 76:26.32 | 3:29.02 | 343982 | 359658




    Range status and errors


    Selected range


    Filename D:\R.I.P\Adele - Greatest Hits [CD].wav


    Peak level 100.0 %
    Extraction speed 4.5 X
    Range quality 100.0 %
    Test CRC DB74590C
    Copy CRC DB74590C
    Copy OK


    No errors occurred



    AccurateRip summary

    Track 1 not present in database
    Track 2 not present in database
    Track 3 not present in database
    Track 4 not present in database
    Track 5 not present in database
    Track 6 not present in database
    Track 7 not present in database
    Track 8 not present in database
    Track 9 not present in database
    Track 10 not present in database
    Track 11 not present in database
    Track 12 not present in database
    Track 13 not present in database
    Track 14 not present in database
    Track 15 not present in database
    Track 16 not present in database
    Track 17 not present in database
    Track 18 not present in database
    Track 19 not present in database
    Track 20 not present in database

    None of the tracks are present in the AccurateRip database


    End of status report


    ---- CUETools DB Plugin V2.1.3


    [CTDB TOCID: 2OC_Iwmza_7WTydDKg1RVqmT054-] found, Submit result: already submitted
    [edf45468] (1/1) Accurately ripped




    ==== Log checksum 7339EA97ACD6A49CDFB84442B4B3935DC2FE9EF90FA986AD43 9D30A61704059E ====













    DOWNLOAD LINK
    ************************************************** ********
    ** Contenuto Nascosto: Schiaccia il bottone RINGRAZIA per visualizzare i link **





    ************************************************** ********


    My referrals
    Se ti piace il mio lavoro
    Attiva o Rinnova dai link sotto


    http://pasted.co/5b297e08
    mirror
    http://freetexthost.com/waxdlu13yy
  2. 10 utenti hanno ringraziato bobsax per ci che ha scritto.

    cannulina (30.05.2016), capo12 (18.10.2016), CptIron_SS (07.01.2017), framos69 (21.07.2016), gioe54 (28.05.2016), icelord66 (24.12.2016), Lost13 (28.12.2016), Lucsart (11.05.2016), MMind (3 Settimane Fa), rpmcp (08.12.2016)

Permessi di Scrittura

  • Tu non puoi inviare nuove discussioni
  • Tu non puoi inviare risposte
  • Tu non puoi inviare allegati
  • Tu non puoi modificare i tuoi messaggi
  •