HomePage - Come attivare il proprio account - Regole del Forum

HOT NEWS!!!

Biancaneve e i sette nani (1937) BDRip 1080p HEVC ITA ENG AC3 ITA ENG Sub PirateMKV

Doctor Strange (2016)


Il neurochirurgo Stephen Strange vede la sua vita cambiare per sempre dopo che un terribile incidente automobilistico lo priva delluso delle mani. Quando la medicina tradizionale si dimostra incapace di guarirlo, Strange costretto cercare una cura in un luogo inaspettato: una misteriosa enclave nota come Kamar-Taj.


1080p
720p
UNTOUCHED-1080p
BLURAY FULL
BLURAY FULL 3D
Biancaneve e i sette nani (1937) BDRip 1080p HEVC ITA ENG AC3 ITA ENG Sub PirateMKV
Risultati da 1 a 1 di 1
  1. #1
    Status
    Offline
    L'avatar di PirateMKV
    Data Registrazione

    08.04.2015

    Messaggi

    2,695

    Ha ringraziato
    80 volte
    Ha Ricevuto 12,546 ringraziamenti in 2,389 discussioni volte
    Taggato
    0 Post(s)

    Biancaneve e i sette nani (1937) BDRip 1080p HEVC ITA ENG AC3 ITA ENG Sub PirateMKV






    Titolo: Snow White and the Seven Dwarfs
    Nazione: USA
    Anno: 1937
    Genere: Animation, Family, Fantasy
    Durata: 83 min
    Regia: William Cottrell, David Hand, Wilfred Jackson, Larry Morey, Perce Pearce, Ben Sharpsteen
    Cast: Roy Atwell, Stuart Buchanan, Adriana Caselotti, Hall Johnson Choir


    La perfida regina ordina al suo cacciatore di uccidere Biancaneve che lo specchio parlante ha definito la pi bella del reame. La ragazza fugge. Guidata dagli animaletti del bosco, arriva alla casa dei sette nani. Eolo, Mammolo, Pisolo, Brontolo, Dotto, Gongolo e Cucciolo la accolgono e la proteggono. Quando la regina, trasformatasi in strega, arriva per ucciderla, i nanetti inseguono la cattiva che precipita da un burrone. Biancaneve, vegliata dai suoi amici come morta, torna in vita quando viene baciata dal giovane principe innamorato.

    Nome Versione: PirateMKV
    Fonte Video: BluRay
    Fonte Audio: BluRay



     






     

    General
    Unique ID : 216176400638684808788752638297027523846 (0xA2A20F71862805F1804C6F29677E3506)
    Complete name : C:\Users\Administrator\Downloads\Biancaneve e i Sette Nani\Biancaneve e i sette nani (1937) BDRip 1080p HEVC ITA ENG AC3 ITA ENG Sub PirateMKV.mkv
    Format : Matroska
    Format version : Version 4 / Version 2
    File size : 3.06 GiB
    Duration : 1h 23mn
    Overall bit rate : 5 270 Kbps
    Movie name : Biancaneve e i sette nani (1937) - PirateMKV
    Encoded date : UTC 2016-05-15 13:11:05
    Writing application : mkvmerge v9.1.0 ('Little Earthquakes') 64bit
    Writing library : libebml v1.3.3 libmatroska v1.4.4 / Lavf57.36.100

    Video
    ID : 1
    Format : HEVC
    Format/Info : High Efficiency Video Coding
    Format profile : [email protected]@Main
    Codec ID : V_MPEGH/ISO/HEVC
    Duration : 1h 23mn
    Bit rate : 3 988 Kbps
    Width : 1 448 pixels
    Height : 1 080 pixels
    Display aspect ratio : 4:3
    Frame rate mode : Constant
    Frame rate : 23.976 (24000/1001) fps
    Color space : YUV
    Chroma subsampling : 4:2:0
    Bit depth : 8 bits
    Bits/(Pixel*Frame) : 0.106
    Stream size : 2.32 GiB (76%)
    Writing library : x265 1.9:[Windows][GCC 5.2.0][64 bit] 8bit
    Encoding settings : wpp / ctu=64 / min-cu-size=8 / max-tu-size=32 / tu-intra-depth=3 / tu-inter-depth=3 / me=2 / subme=4 / merange=57 / no-rect / no-amp / max-merge=3 / temporal-mvp / no-early-skip / rdpenalty=0 / no-tskip / no-tskip-fast / strong-intra-smoothing / no-lossless / no-cu-lossless / no-constrained-intra / fast-intra / open-gop / no-temporal-layers / interlace=0 / keyint=250 / min-keyint=23 / scenecut=40 / rc-lookahead=40 / lookahead-slices=0 / bframes=8 / bframe-bias=0 / b-adapt=2 / ref=5 / limit-refs=1 / limit-modes / weightp / weightb / aq-mode=1 / qg-size=32 / aq-strength=2.00 / cbqpoffs=0 / crqpoffs=0 / rd=4 / psy-rd=1.00 / rdoq-level=0 / psy-rdoq=0.00 / signhide / deblock=-1:-1 / sao / no-sao-non-deblock / b-pyramid / no-cutree / no-intra-refresh / rc=crf / crf=22.1 / qcomp=0.60 / qpmin=0 / qpmax=51 / qpstep=4 / vbv-maxrate=12000 / vbv-bufsize=12000 / crf-max=0.0 / ipratio=1.40 / pbratio=1.30
    Language : English
    Default : Yes
    Forced : No
    Color range : Limited
    Matrix coefficients : BT.709

    Audio #1
    ID : 2
    Format : AC-3
    Format/Info : Audio Coding 3
    Mode extension : CM (complete main)
    Format settings, Endianness : Big
    Codec ID : A_AC3
    Duration : 1h 23mn
    Bit rate mode : Constant
    Bit rate : 640 Kbps
    Channel(s) : 6 channels
    Channel positions : Front: L C R, Side: L R, LFE
    Sampling rate : 48.0 KHz
    Frame rate : 31.250 fps (1536 spf)
    Compression mode : Lossy
    Stream size : 381 MiB (12%)
    Title : AC3 5.1
    Language : Italian
    Default : Yes
    Forced : No

    Audio #2
    ID : 3
    Format : AC-3
    Format/Info : Audio Coding 3
    Mode extension : CM (complete main)
    Format settings, Endianness : Big
    Codec ID : A_AC3
    Duration : 1h 23mn
    Bit rate mode : Constant
    Bit rate : 640 Kbps
    Channel(s) : 6 channels
    Channel positions : Front: L C R, Side: L R, LFE
    Sampling rate : 48.0 KHz
    Frame rate : 31.250 fps (1536 spf)
    Compression mode : Lossy
    Stream size : 381 MiB (12%)
    Title : AC3 5.1
    Language : English
    Default : No
    Forced : No

    Text #1
    ID : 4
    Format : UTF-8
    Codec ID : S_TEXT/UTF8
    Codec ID/Info : UTF-8 Plain Text
    Duration : 1h 22mn
    Bit rate : 0 bps
    Count of elements : 3
    Stream size : 69.0 Bytes (0%)
    Title : Forced
    Language : Italian
    Default : Yes
    Forced : Yes

    Text #2
    ID : 5
    Format : UTF-8
    Codec ID : S_TEXT/UTF8
    Codec ID/Info : UTF-8 Plain Text
    Duration : 1h 22mn
    Bit rate : 30 bps
    Count of elements : 654
    Stream size : 18.6 KiB (0%)
    Title : Normal
    Language : Italian
    Default : No
    Forced : No

    Text #3
    ID : 6
    Format : UTF-8
    Codec ID : S_TEXT/UTF8
    Codec ID/Info : UTF-8 Plain Text
    Duration : 1h 20mn
    Bit rate : 34 bps
    Count of elements : 744
    Stream size : 20.1 KiB (0%)
    Title : Normal
    Language : English
    Default : No
    Forced : No

    Menu
    00:00:00.000 : en:Opening Credits
    00:01:22.707 : en:Once Upon a Time...
    00:02:11.965 : en:The Magic Mirror
    00:03:35.506 : en:"I'm Wishing"
    00:05:25.825 : en:The Prince ("One Song")
    00:07:00.044 : en:The Queen's Evil Plan
    00:09:11.425 : en:Flight Through the Forest
    00:11:34.735 : en:"with a Smile and a Song"
    00:14:56.979 : en:The Dwarf's Cottage
    00:17:38.348 : en:"Whistle While You Work"
    00:21:25.284 : en:"Heigh-Ho"
    00:24:09.156 : en:Snow White Explores Upstairs
    00:25:29.819 : en:The Dwarfs Arrive Home
    00:34:55.426 : en:Snow White Wakes Up
    00:42:47.398 : en:"Bluddle-Uddle-Um-Dum"
    00:47:49.408 : en:Deceived
    00:49:15.827 : en:The Queen Prepares a Disgues
    00:52:02.118 : en:"the Dwarf's Yodel Song"
    00:56:49.447 : en:"Some Day My Prince Will Come"
    00:58:53.321 : en:Settling Down for the Night
    01:02:38.796 : en:The Poison Apple
    01:05:40.937 : en:The Next Morning
    01:08:24.558 : en:The Old Peddler Woman
    01:11:41.297 : en:The Animals Warn the Dwarfs
    01:14:08.902 : en:The Apple
    01:17:42.991 : en:A Bedside Vigil
    01:20:27.614 : en:Love's First Kiss






    ** Contenuto Nascosto: Schiaccia il bottone RINGRAZIA per visualizzare i link **


    Password: W9uf3209bh0Ped970N
  2. 4 utenti hanno ringraziato PirateMKV per ci che ha scritto.

    deckard69 (10.12.2016), giovvari (14.12.2016), madido (16.12.2016), Stekkasaurus (14.11.2016)

Permessi di Scrittura

  • Tu non puoi inviare nuove discussioni
  • Tu non puoi inviare risposte
  • Tu non puoi inviare allegati
  • Tu non puoi modificare i tuoi messaggi
  •