HomePage - Come attivare il proprio account - Regole del Forum

HOT NEWS!!!

Carol (2015) BDRip 1080p HEVC ITA ENG AC3 ITA ENG Sub PirateMKV

Rogue one-a Star Wars story (2016)


Rogue One A Star Wars Story č il primo capitolo di una nuova avventurosa serie cinematografica che esplora i personaggi e gli eventi che ruotano intorno alla saga di Guerre Stellari.


1080p
720p
UNTOUCHED-1080p
BLURAY FULL
BLURAY FULL 3D
Carol (2015) BDRip 1080p HEVC ITA ENG AC3 ITA ENG Sub PirateMKV


Avviso a tutti i lettori di mondowarezz.Le sezioni Ebook,Quotidiani e Riviste.Sono momentaneamente chiuse.Vi preghiamo di non intasare la chatbox con le stesse domande.Grazie
Risultati da 1 a 1 di 1
  1. #1
    Status
    Offline
    L'avatar di PirateMKV
    Data Registrazione

    08.04.2015

    Messaggi

    2,781

    Ha ringraziato
    85 volte
    Ha Ricevuto 14,388 ringraziamenti in 2,506 discussioni volte
    Taggato
    1 Post(s)

    Carol (2015) BDRip 1080p HEVC ITA ENG AC3 ITA ENG Sub PirateMKV






    Titolo: Carol
    Nazione: UK, USA
    Anno: 2015
    Genere: Drama, Romance
    Durata: 118 min
    Regia: Todd Haynes
    Cast: Cate Blanchett, Rooney Mara, Kyle Chandler, Sarah Paulson


    New York, 1952. Therese Belivet č una giovane donna impiegata in un grande magazzino di Manhattan. Richard vorrebbe sposarla, Dannie vorrebbe baciarla ma lei ha occhi solo per Carol, una cliente distinta, rapita da un trenino elettrico e dal suo interesse. Un guanto dimenticato e un trenino acquistato dopo, Carol e Therese siedono 'affamate' in un café. Carol ha un marito da cui vuole divorziare e una bambina che vuole allevare, Therese un pretendente incalzante e un portfolio da realizzare. Sole dentro il rigido inverno newyorkese e congelate dalle rigorose convenzioni dell'epoca, Carol e Therese viaggiano verso Ovest e una nuova frontiera, che le scopre appassionate e innamorate. Nell'America della Guerra Fredda, che considerava l'omosessualitā come un disturbo sociopatico della personalitā, Carol e Therese sfideranno i giudizi morali e scioglieranno l'inverno nel cuore.

    Nome Versione: PirateMKV
    Fonte Video: BluRay
    Fonte Audio: DVD



     






     

    General
    Unique ID : 181656817867762045760021896718208365733 (0x88A9D49C86113112BBAC0E31438E74A5)
    Complete name : C:\Users\Administrator\Downloads\Carol\mux\Carol (2015) BDRip 1080p HEVC ITA ENG AC3 ITA ENG Sub PirateMKV.mkv
    Format : Matroska
    Format version : Version 4 / Version 2
    File size : 5.46 GiB
    Duration : 1h 58mn
    Overall bit rate : 6 593 Kbps
    Movie name : Carol (2015) - PirateMKV
    Encoded date : UTC 2016-05-06 15:05:39
    Writing application : mkvmerge v9.1.0 ('Little Earthquakes') 64bit
    Writing library : libebml v1.3.3 libmatroska v1.4.4 / Lavf57.25.100

    Video
    ID : 1
    Format : HEVC
    Format/Info : High Efficiency Video Coding
    Format profile : [email protected]@Main
    Codec ID : V_MPEGH/ISO/HEVC
    Duration : 1h 58mn
    Bit rate : 5 567 Kbps
    Width : 1 920 pixels
    Height : 1 038 pixels
    Display aspect ratio : 1.85:1
    Frame rate mode : Constant
    Frame rate : 23.976 (24000/1001) fps
    Color space : YUV
    Chroma subsampling : 4:2:0
    Bit depth : 8 bits
    Bits/(Pixel*Frame) : 0.116
    Stream size : 4.61 GiB (84%)
    Writing library : x265 1.9:[Windows][GCC 5.2.0][64 bit] 8bit
    Encoding settings : wpp / ctu=64 / min-cu-size=8 / max-tu-size=32 / tu-intra-depth=3 / tu-inter-depth=3 / me=2 / subme=4 / merange=57 / no-rect / no-amp / max-merge=3 / temporal-mvp / no-early-skip / rdpenalty=0 / no-tskip / no-tskip-fast / strong-intra-smoothing / no-lossless / no-cu-lossless / no-constrained-intra / fast-intra / open-gop / no-temporal-layers / interlace=0 / keyint=250 / min-keyint=23 / scenecut=40 / rc-lookahead=40 / lookahead-slices=0 / bframes=8 / bframe-bias=0 / b-adapt=2 / ref=4 / limit-refs=1 / limit-modes / weightp / weightb / aq-mode=1 / qg-size=32 / aq-strength=2.00 / cbqpoffs=0 / crqpoffs=0 / rd=4 / psy-rd=1.00 / rdoq-level=0 / psy-rdoq=0.00 / signhide / deblock=-1:-1 / sao / no-sao-non-deblock / b-pyramid / no-cutree / no-intra-refresh / rc=crf / crf=23.5 / qcomp=0.60 / qpmin=0 / qpmax=51 / qpstep=4 / vbv-maxrate=12000 / vbv-bufsize=12000 / crf-max=0.0 / ipratio=1.40 / pbratio=1.30
    Language : English
    Default : Yes
    Forced : No
    Color range : Limited
    Matrix coefficients : BT.709

    Audio #1
    ID : 2
    Format : AC-3
    Format/Info : Audio Coding 3
    Mode extension : CM (complete main)
    Format settings, Endianness : Big
    Codec ID : A_AC3
    Duration : 1h 58mn
    Bit rate mode : Constant
    Bit rate : 384 Kbps
    Channel(s) : 6 channels
    Channel positions : Front: L C R, Side: L R, LFE
    Sampling rate : 48.0 KHz
    Frame rate : 31.250 fps (1536 spf)
    Compression mode : Lossy
    Stream size : 325 MiB (6%)
    Title : AC3 5.1 (DVD Resync)
    Language : Italian
    Default : Yes
    Forced : No

    Audio #2
    ID : 3
    Format : AC-3
    Format/Info : Audio Coding 3
    Mode extension : CM (complete main)
    Format settings, Endianness : Big
    Codec ID : A_AC3
    Duration : 1h 58mn
    Bit rate mode : Constant
    Bit rate : 640 Kbps
    Channel(s) : 6 channels
    Channel positions : Front: L C R, Side: L R, LFE
    Sampling rate : 48.0 KHz
    Frame rate : 31.250 fps (1536 spf)
    Compression mode : Lossy
    Stream size : 542 MiB (10%)
    Title : AC3 5.1
    Language : English
    Default : No
    Forced : No

    Text #1
    ID : 4
    Format : UTF-8
    Codec ID : S_TEXT/UTF8
    Codec ID/Info : UTF-8 Plain Text
    Duration : 1h 28mn
    Bit rate : 0 bps
    Count of elements : 13
    Stream size : 256 Bytes (0%)
    Title : Forced
    Language : Italian
    Default : Yes
    Forced : Yes

    Text #2
    ID : 5
    Format : UTF-8
    Codec ID : S_TEXT/UTF8
    Codec ID/Info : UTF-8 Plain Text
    Duration : 1h 50mn
    Bit rate : 42 bps
    Count of elements : 1056
    Stream size : 34.3 KiB (0%)
    Title : Normal
    Language : Italian
    Default : No
    Forced : No

    Text #3
    ID : 6
    Format : UTF-8
    Codec ID : S_TEXT/UTF8
    Codec ID/Info : UTF-8 Plain Text
    Duration : 1h 50mn
    Bit rate : 50 bps
    Count of elements : 1222
    Stream size : 41.3 KiB (0%)
    Title : SDH
    Language : Italian
    Default : No
    Forced : No

    Text #4
    ID : 7
    Format : UTF-8
    Codec ID : S_TEXT/UTF8
    Codec ID/Info : UTF-8 Plain Text
    Duration : 1h 57mn
    Bit rate : 52 bps
    Count of elements : 1791
    Stream size : 45.1 KiB (0%)
    Title : SDH
    Language : English
    Default : No
    Forced : No

    Menu
    00:00:00.000 : en:00:00:00.000
    00:05:59.150 : en:00:05:59.150
    00:13:10.039 : en:00:13:10.039
    00:19:29.543 : en:00:19:29.543
    00:25:16.640 : en:00:25:16.640
    00:30:49.514 : en:00:30:49.514
    00:37:59.652 : en:00:37:59.652
    00:45:16.422 : en:00:45:16.422
    00:52:17.217 : en:00:52:17.217
    00:59:22.476 : en:00:59:22.476
    01:06:21.728 : en:01:06:21.728
    01:13:15.641 : en:01:13:15.641
    01:18:26.744 : en:01:18:26.744
    01:24:30.774 : en:01:24:30.774
    01:31:54.759 : en:01:31:54.759
    01:38:33.699 : en:01:38:33.699
    01:44:20.588 : en:01:44:20.588
    01:48:59.700 : en:01:48:59.700
    01:52:14.603 : en:01:52:14.603
    01:54:27.986 : en:01:54:27.986






    ** Contenuto Nascosto: Schiaccia il bottone RINGRAZIA per visualizzare i link **


    Password: W9uf3209bh0Ped970N
  2. 4 utenti hanno ringraziato PirateMKV per ciō che ha scritto.

    FULLY69 (04.06.2016), jonnyrock (26.05.2016), mongoporno (5 Giorni Fa), penu81 (27.07.2016)

Permessi di Scrittura

  • Tu non puoi inviare nuove discussioni
  • Tu non puoi inviare risposte
  • Tu non puoi inviare allegati
  • Tu non puoi modificare i tuoi messaggi
  •