HomePage - Come attivare il proprio account - Regole del Forum

HOT NEWS!!!

The Danish Girl (2015) BDRip 1080p HEVC ITA ENG AC3 ITA ENG Sub PirateMKV

Passengers (2016)


Durante un viaggio verso una nuova casa su un altro pianeta, due passeggeri vengono svegliati 90 anni prima del previsto per un guasto della nave spaziale.


1080p
720p
UNTOUCHED-1080p
BLURAY FULL
BLURAY FULL 3D
The Danish Girl (2015) BDRip 1080p HEVC ITA ENG AC3 ITA ENG Sub PirateMKV


Avviso a tutti i lettori di mondowarezz.Le sezioni Ebook,Quotidiani e Riviste.Sono momentaneamente chiuse.Vi preghiamo di non intasare la chatbox con le stesse domande.Grazie
Risultati da 1 a 1 di 1
  1. #1
    Status
    Offline
    L'avatar di PirateMKV
    Data Registrazione

    08.04.2015

    Messaggi

    2,781

    Ha ringraziato
    85 volte
    Ha Ricevuto 14,270 ringraziamenti in 2,503 discussioni volte
    Taggato
    1 Post(s)

    The Danish Girl (2015) BDRip 1080p HEVC ITA ENG AC3 ITA ENG Sub PirateMKV






    Titolo: The Danish Girl
    Nazione: UK, USA, Belgium, Denmark, Germany
    Anno: 2015
    Genere: Biography, Drama, Romance
    Durata: 119 min
    Regia: Tom Hooper
    Cast: Alicia Vikander, Eddie Redmayne, Tusse Silberg, Adrian Schiller


    Pittore paesaggista della Danimarca dei primi anni del '900 Einar Wegener ha vissuto due vite, la prima con una moglie a Copenhagen, e la seconda a Parigi come Lili Elbe. Infine ha tentato la prima operazione chirurgica della storia finalizzata al cambio di sesso. Attratto dall'abbigliamento femminile dopo un gioco erotico con la moglie e sempre meno capace di smettere di vestirsi e atteggiarsi da donna, nel corso di diversi anni Einar vuole lasciare il posto a Lili, che percepisce come un'entità separata. Aiutato e supportato attraverso molte difficoltà da una moglie da cui è sempre meno attratto, Einar fugge dalla medicina del proprio tempo che lo vuole internare o dichiarare schizofrenico e si rifugia nella chirurgia sperimentale, conscio che quella che intende provare è un'operazione mai tentata prima e dai rischi immani.

    Nome Versione: PirateMKV
    Fonte Video: BluRay
    Fonte Audio: BluRay



     






     

    General
    Unique ID : 227136043517655101599404395719699345224 (0xAAE0CF8E5CCD190795956F096C7A2F48)
    Complete name : C:\Users\Administrator\Downloads\danish girl\mux\The Danish Girl (2015) BDRip 1080p HEVC ITA ENG AC3 ITA ENG Sub PirateMKV.mkv
    Format : Matroska
    Format version : Version 4 / Version 2
    File size : 5.10 GiB
    Duration : 1h 59mn
    Overall bit rate : 6 101 Kbps
    Movie name : The Danish Girl (2015) - PirateMKV
    Encoded date : UTC 2016-05-10 14:41:49
    Writing application : mkvmerge v9.1.0 ('Little Earthquakes') 64bit
    Writing library : libebml v1.3.3 libmatroska v1.4.4 / Lavf57.25.100

    Video
    ID : 1
    Format : HEVC
    Format/Info : High Efficiency Video Coding
    Format profile : [email protected]@Main
    Codec ID : V_MPEGH/ISO/HEVC
    Duration : 1h 59mn
    Bit rate : 4 819 Kbps
    Width : 1 920 pixels
    Height : 1 040 pixels
    Display aspect ratio : 1.85:1
    Frame rate mode : Constant
    Frame rate : 23.976 (24000/1001) fps
    Color space : YUV
    Chroma subsampling : 4:2:0
    Bit depth : 8 bits
    Bits/(Pixel*Frame) : 0.101
    Stream size : 4.03 GiB (79%)
    Writing library : x265 1.9:[Windows][GCC 5.2.0][64 bit] 8bit
    Encoding settings : wpp / ctu=64 / min-cu-size=8 / max-tu-size=32 / tu-intra-depth=3 / tu-inter-depth=3 / me=2 / subme=4 / merange=57 / no-rect / no-amp / max-merge=3 / temporal-mvp / no-early-skip / rdpenalty=0 / no-tskip / no-tskip-fast / strong-intra-smoothing / no-lossless / no-cu-lossless / no-constrained-intra / fast-intra / open-gop / no-temporal-layers / interlace=0 / keyint=250 / min-keyint=23 / scenecut=40 / rc-lookahead=40 / lookahead-slices=0 / bframes=8 / bframe-bias=0 / b-adapt=2 / ref=4 / limit-refs=1 / limit-modes / weightp / weightb / aq-mode=1 / qg-size=32 / aq-strength=2.00 / cbqpoffs=0 / crqpoffs=0 / rd=4 / psy-rd=1.00 / rdoq-level=0 / psy-rdoq=0.00 / signhide / deblock=-1:-1 / sao / no-sao-non-deblock / b-pyramid / no-cutree / no-intra-refresh / rc=crf / crf=21.5 / qcomp=0.60 / qpmin=0 / qpmax=51 / qpstep=4 / vbv-maxrate=12000 / vbv-bufsize=12000 / crf-max=0.0 / ipratio=1.40 / pbratio=1.30
    Language : English
    Default : Yes
    Forced : No
    Color range : Limited
    Matrix coefficients : BT.709

    Audio #1
    ID : 2
    Format : AC-3
    Format/Info : Audio Coding 3
    Mode extension : CM (complete main)
    Format settings, Endianness : Big
    Codec ID : A_AC3
    Duration : 1h 59mn
    Bit rate mode : Constant
    Bit rate : 640 Kbps
    Channel(s) : 6 channels
    Channel positions : Front: L C R, Side: L R, LFE
    Sampling rate : 48.0 KHz
    Frame rate : 31.250 fps (1536 spf)
    Compression mode : Lossy
    Stream size : 547 MiB (10%)
    Title : AC3 5.1
    Language : Italian
    Default : Yes
    Forced : No

    Audio #2
    ID : 3
    Format : AC-3
    Format/Info : Audio Coding 3
    Mode extension : CM (complete main)
    Format settings, Endianness : Big
    Codec ID : A_AC3
    Duration : 1h 59mn
    Bit rate mode : Constant
    Bit rate : 640 Kbps
    Channel(s) : 6 channels
    Channel positions : Front: L C R, Side: L R, LFE
    Sampling rate : 48.0 KHz
    Frame rate : 31.250 fps (1536 spf)
    Compression mode : Lossy
    Stream size : 548 MiB (10%)
    Title : AC3 5.1
    Language : English
    Default : No
    Forced : No

    Text #1
    ID : 4
    Format : UTF-8
    Codec ID : S_TEXT/UTF8
    Codec ID/Info : UTF-8 Plain Text
    Duration : 43mn 28s
    Bit rate : 1 bps
    Count of elements : 9
    Stream size : 361 Bytes (0%)
    Title : Forced
    Language : Italian
    Default : Yes
    Forced : Yes

    Text #2
    ID : 5
    Format : UTF-8
    Codec ID : S_TEXT/UTF8
    Codec ID/Info : UTF-8 Plain Text
    Duration : 1h 57mn
    Bit rate : 32 bps
    Count of elements : 1155
    Stream size : 28.4 KiB (0%)
    Title : Normal
    Language : Italian
    Default : No
    Forced : No

    Text #3
    ID : 6
    Format : UTF-8
    Codec ID : S_TEXT/UTF8
    Codec ID/Info : UTF-8 Plain Text
    Duration : 1h 50mn
    Bit rate : 37 bps
    Count of elements : 1303
    Stream size : 30.6 KiB (0%)
    Title : SDH
    Language : English
    Default : No
    Forced : No

    Menu
    00:00:00.000 : en:00:00:00.000
    00:06:45.905 : en:00:06:45.905
    00:13:42.280 : en:00:13:42.280
    00:17:45.898 : en:00:17:45.898
    00:21:26.535 : en:00:21:26.535
    00:26:36.094 : en:00:26:36.094
    00:34:03.625 : en:00:34:03.625
    00:40:21.544 : en:00:40:21.544
    00:47:31.974 : en:00:47:31.974
    00:53:03.889 : en:00:53:03.889
    00:58:06.483 : en:00:58:06.483
    01:06:50.757 : en:01:06:50.757
    01:10:18.464 : en:01:10:18.464
    01:15:03.999 : en:01:15:03.999
    01:22:16.265 : en:01:22:16.265
    01:27:29.077 : en:01:27:29.077
    01:33:22.263 : en:01:33:22.263
    01:41:36.924 : en:01:41:36.924
    01:47:23.228 : en:01:47:23.228
    01:52:44.216 : en:01:52:44.216






    ** Contenuto Nascosto: Schiaccia il bottone RINGRAZIA per visualizzare i link **


    Password: W9uf3209bh0Ped970N
  2. 4 utenti hanno ringraziato PirateMKV per ciò che ha scritto.

    federico1982 (3 Settimane Fa), rital06 (2 Settimane Fa), stefmin78 (23.01.2017), vecchietto (13.05.2016)

Permessi di Scrittura

  • Tu non puoi inviare nuove discussioni
  • Tu non puoi inviare risposte
  • Tu non puoi inviare allegati
  • Tu non puoi modificare i tuoi messaggi
  •