HomePage - Come attivare il proprio account - Regole del Forum

HOT NEWS!!!

Deadpool (2016) BDRip 1080p HEVC ITA ENG AC3 ITA ENG Sub PirateMKV

Rogue one-a Star Wars story (2016)


Rogue One A Star Wars Story il primo capitolo di una nuova avventurosa serie cinematografica che esplora i personaggi e gli eventi che ruotano intorno alla saga di Guerre Stellari.


1080p
720p
UNTOUCHED-1080p
BLURAY FULL
BLURAY FULL 3D
Deadpool (2016) BDRip 1080p HEVC ITA ENG AC3 ITA ENG Sub PirateMKV


Avviso a tutti i lettori di mondowarezz.Le sezioni Ebook,Quotidiani e Riviste.Sono momentaneamente chiuse.Vi preghiamo di non intasare la chatbox con le stesse domande.Grazie
Risultati da 1 a 1 di 1
  1. #1
    Status
    Offline
    L'avatar di PirateMKV
    Data Registrazione

    08.04.2015

    Messaggi

    2,781

    Ha ringraziato
    85 volte
    Ha Ricevuto 14,379 ringraziamenti in 2,506 discussioni volte
    Taggato
    1 Post(s)

    Deadpool (2016) BDRip 1080p HEVC ITA ENG AC3 ITA ENG Sub PirateMKV






    Titolo: Deadpool
    Nazione: USA, Canada
    Anno: 2016
    Genere: Action, Adventure, Comedy
    Durata: 108 min
    Regia: Tim Miller
    Cast: Ryan Reynolds, Karan Soni, Ed Skrein, Michael Benyaer


    Wade Wilson un mercenario senza scrupoli per cui tutto ha un prezzo, finch scopre la sua anima gemella: una prostituta di nome Vanessa. Quando tutto sembra andare per il meglio, Wilson scopre di avere un cancro all'ultimo stadio. Per questo viene avvicinato da un sinistro personaggio che ha in serbo una proposta di cura insolita. Wilson accetta ma finisce per essere vittima di un esperimento genetico dagli esiti imprevedibili.

    Nome Versione: PirateMKV
    Fonte Video: BluRay
    Fonte Audio: iTunes



     






     

    General
    Unique ID : 249783978498877301887419150228086778095 (0xBBEAA4F636999EE8A7410CA37F3EE8EF)
    Complete name : C:\Users\Administrator\Downloads\Deadpool\mux\Dead pool (2016) BDRip 1080p HEVC ITA ENG AC3 ITA ENG Sub PirateMKV.mkv
    Format : Matroska
    Format version : Version 4 / Version 2
    File size : 5.28 GiB
    Duration : 1h 48mn
    Overall bit rate : 6 991 Kbps
    Movie name : Deadpool (2016) - PirateMKV
    Encoded date : UTC 2016-05-01 16:52:49
    Writing application : mkvmerge v9.1.0 ('Little Earthquakes') 64bit
    Writing library : libebml v1.3.3 libmatroska v1.4.4 / Lavf57.34.103

    Video
    ID : 1
    Format : HEVC
    Format/Info : High Efficiency Video Coding
    Format profile : [email protected]@Main
    Codec ID : V_MPEGH/ISO/HEVC
    Duration : 1h 48mn
    Bit rate : 6 160 Kbps
    Width : 1 920 pixels
    Height : 804 pixels
    Display aspect ratio : 2.40:1
    Frame rate mode : Constant
    Frame rate : 23.976 (24000/1001) fps
    Color space : YUV
    Chroma subsampling : 4:2:0
    Bit depth : 8 bits
    Bits/(Pixel*Frame) : 0.166
    Stream size : 4.65 GiB (88%)
    Writing library : x265 1.9:[Windows][GCC 5.2.0][64 bit] 8bit
    Encoding settings : wpp / ctu=64 / min-cu-size=8 / max-tu-size=32 / tu-intra-depth=3 / tu-inter-depth=3 / me=2 / subme=4 / merange=57 / no-rect / no-amp / max-merge=3 / temporal-mvp / no-early-skip / rdpenalty=0 / no-tskip / no-tskip-fast / strong-intra-smoothing / no-lossless / no-cu-lossless / no-constrained-intra / fast-intra / open-gop / no-temporal-layers / interlace=0 / keyint=250 / min-keyint=23 / scenecut=40 / rc-lookahead=40 / lookahead-slices=0 / bframes=8 / bframe-bias=0 / b-adapt=2 / ref=5 / limit-refs=1 / limit-modes / weightp / weightb / aq-mode=1 / qg-size=32 / aq-strength=2.00 / cbqpoffs=0 / crqpoffs=0 / rd=4 / psy-rd=1.00 / rdoq-level=0 / psy-rdoq=0.00 / signhide / deblock=-1:-1 / sao / no-sao-non-deblock / b-pyramid / no-cutree / no-intra-refresh / rc=crf / crf=21.5 / qcomp=0.60 / qpmin=0 / qpmax=51 / qpstep=4 / vbv-maxrate=12000 / vbv-bufsize=12000 / crf-max=0.0 / ipratio=1.40 / pbratio=1.30
    Language : English
    Default : Yes
    Forced : No
    Color range : Limited
    Matrix coefficients : BT.709

    Audio #1
    ID : 2
    Format : AC-3
    Format/Info : Audio Coding 3
    Mode extension : CM (complete main)
    Format settings, Endianness : Big
    Codec ID : A_AC3
    Duration : 1h 48mn
    Bit rate mode : Constant
    Bit rate : 192 Kbps
    Channel(s) : 2 channels
    Channel positions : Front: L R
    Sampling rate : 48.0 KHz
    Frame rate : 31.250 fps (1536 spf)
    Compression mode : Lossy
    Stream size : 149 MiB (3%)
    Title : AC3 2.0 (iTunes Resync)
    Language : Italian
    Default : Yes
    Forced : No

    Audio #2
    ID : 3
    Format : AC-3
    Format/Info : Audio Coding 3
    Mode extension : CM (complete main)
    Format settings, Endianness : Big
    Codec ID : A_AC3
    Duration : 1h 48mn
    Bit rate mode : Constant
    Bit rate : 640 Kbps
    Channel(s) : 6 channels
    Channel positions : Front: L C R, Side: L R, LFE
    Sampling rate : 48.0 KHz
    Frame rate : 31.250 fps (1536 spf)
    Compression mode : Lossy
    Stream size : 495 MiB (9%)
    Title : AC3 5.1
    Language : English
    Default : No
    Forced : No

    Text #1
    ID : 4
    Format : UTF-8
    Codec ID : S_TEXT/UTF8
    Codec ID/Info : UTF-8 Plain Text
    Duration : 1h 47mn
    Bit rate : 0 bps
    Count of elements : 14
    Stream size : 330 Bytes (0%)
    Title : Forced
    Language : Italian
    Default : Yes
    Forced : Yes

    Text #2
    ID : 5
    Format : UTF-8
    Codec ID : S_TEXT/UTF8
    Codec ID/Info : UTF-8 Plain Text
    Duration : 1s 918ms
    Bit rate : 70 bps
    Count of elements : 1
    Stream size : 17.0 Bytes (0%)
    Title : Forced
    Language : English
    Default : No
    Forced : No

    Text #3
    ID : 6
    Format : UTF-8
    Codec ID : S_TEXT/UTF8
    Codec ID/Info : UTF-8 Plain Text
    Duration : 1h 47mn
    Bit rate : 56 bps
    Count of elements : 1408
    Stream size : 44.6 KiB (0%)
    Title : Normal
    Language : Italian
    Default : No
    Forced : No

    Text #4
    ID : 7
    Format : UTF-8
    Codec ID : S_TEXT/UTF8
    Codec ID/Info : UTF-8 Plain Text
    Duration : 1h 47mn
    Bit rate : 63 bps
    Count of elements : 1852
    Stream size : 50.4 KiB (0%)
    Title : SDH
    Language : English
    Default : No
    Forced : No

    Menu
    00:00:00.000 : en:Chapter 1
    00:03:04.726 : en:Chapter 2
    00:05:53.019 : en:Chapter 3
    00:09:30.820 : en:Chapter 4
    00:13:19.089 : en:Chapter 5
    00:16:48.716 : en:Chapter 6
    00:20:12.544 : en:Chapter 7
    00:22:06.408 : en:Chapter 8
    00:27:09.628 : en:Chapter 9
    00:31:58.958 : en:Chapter 10
    00:36:51.709 : en:Chapter 11
    00:41:06.172 : en:Chapter 12
    00:44:45.766 : en:Chapter 13
    00:46:56.605 : en:Chapter 14
    00:50:10.966 : en:Chapter 15
    00:53:18.028 : en:Chapter 16
    00:55:33.038 : en:Chapter 17
    00:59:07.752 : en:Chapter 18
    01:03:05.239 : en:Chapter 19
    01:07:06.439 : en:Chapter 20
    01:09:15.568 : en:Chapter 21
    01:12:29.720 : en:Chapter 22
    01:16:46.393 : en:Chapter 23
    01:20:43.713 : en:Chapter 24
    01:25:53.398 : en:Chapter 25
    01:31:03.791 : en:Chapter 26
    01:34:46.972 : en:Chapter 27
    01:39:52.736 : en:Chapter 28






    ** Contenuto Nascosto: Schiaccia il bottone RINGRAZIA per visualizzare i link **




    ** Contenuto Nascosto: Schiaccia il bottone RINGRAZIA per visualizzare i link **


    Password: W9uf3209bh0Ped970N
  2. 17 utenti hanno ringraziato PirateMKV per ci che ha scritto.

    4K. (3 Settimane Fa), Alex10stella (21.12.2016), c10m (11.05.2016), drift (18.06.2016), ele ele (20.05.2016), keijimaeda2013 (15.11.2016), KITT2000 (14.05.2016), lonewolfe16 (12.09.2016), mioz (08.05.2016), MMind (17.02.2017), mongoporno (3 Giorni Fa), penu81 (31.07.2016), peppinograsso (04.12.2016), pvk (25.05.2016), thebegi (29.07.2016), vehemens (08.05.2016), verul (11.09.2016)

Permessi di Scrittura

  • Tu non puoi inviare nuove discussioni
  • Tu non puoi inviare risposte
  • Tu non puoi inviare allegati
  • Tu non puoi modificare i tuoi messaggi
  •