HomePage - Come attivare il proprio account - Regole del Forum

HOT NEWS!!!

Death Note (2006).mkv BDRip 1080p HEVC AC3 ITA

Transformers - L'Ultimo Cavaliere (2017)


In Transformers - L'Ultimo Cavaliere, quinto episodio dell'epica saga cinematografica firmata Michael Bay e basata sui giocattoli trasformabili Hasbro, la preda diventerÓ eroe.


1080p
720p
UNTOUCHED-1080p
BLURAY FULL
BLURAY FULL 3D
Death Note (2006).mkv BDRip 1080p HEVC AC3 ITA
Risultati da 1 a 2 di 2
  1. #1
    Status
    Offline
    L'avatar di Zero
    Data Registrazione

    16.11.2012

    Messaggi

    1,903

    Ha ringraziato
    1 volte
    Ha Ricevuto 9,391 ringraziamenti in 1,371 discussioni volte
    Taggato
    0 Post(s)

    Death Note (2006).mkv BDRip 1080p HEVC AC3 ITA



    Death Note (デスノート Desu Nōto?) Ŕ un manga ideato e scritto da Tsugumi Ōba e disegnato da Takeshi Obata, pubblicato in Giappone dal dicembre 2003 al maggio 2006 sul settimanale Weekly Shōnen Jump dalla casa editrice Shūeisha e poi raccolto in dodici tankōbon, mentre in Italia il manga Ŕ edito da Planet Manga, etichetta della Panini Comics, ed Ŕ stato pubblicato dal novembre 2006 al settembre 2008.

    La storia si incentra su Light Yagami, uno studente delle scuole superiori che trova un quaderno dai poteri soprannaturali chiamato Death Note, gettato sulla Terra dallo shinigami Ryuk. L'oggetto dona all'utilizzatore il potere di uccidere chiunque semplicemente scrivendo il suo nome sul quaderno mentre ci si figura mentalmente il volto. Light intende usare il Death Note per eliminare tutti i criminali e creare un mondo dove non ci sia il male, ma i suoi piani saranno contrastati dall'intervento di Elle[N 1], un famoso investigatore privato, chiamato a indagare sul caso delle misteriose morti dei criminali.

    Al successo del manga hanno fatto seguito numerose opere derivate. Una serie televisiva anime di 37 episodi, prodotta da Madhouse e diretta da Tetsurō Araki, Ŕ andata in onda in Giappone dal 3 ottobre 2006 al 26 giugno 2007 su Nippon Television. In Italia la stessa Ŕ stata trasmessa nel 2008 sul canale MTV. Sono stati prodotti inoltre quattro lungometraggi live action, un dorama, un musical, due light novel e vari videogiochi.

    Trama
    Light Yagami Ŕ uno studente modello, annoiato dal suo stile di vita e stanco di essere circondato da una societÓ pervasa da crimini e corruzione. La sua vita prende una svolta decisiva quando un giorno trova per terra un misterioso quaderno nero, intitolato "Death Note", che reca l'istruzione "L'umano il cui nome sarÓ scritto su questo quaderno morirÓ". Inizialmente scettico sulla sua autenticitÓ, Light si ricrede quando prova con successo il quaderno su due criminali e incontra il vero proprietario del Death Note, uno shinigami di nome Ryuk; decide quindi di usare questo nuovo potere per uccidere tutti i criminali, estirpare il male e diventare il "Dio del nuovo mondo". Tuttavia, quando inizia a mettere in pratica il suo proposito, il crescente numero di morti inspiegabili attira l'attenzione degli agenti dell'Interpol e di un famoso detective privato conosciuto come Elle.

    Regia Tetsurō Araki
    Composizione serie Toshiki Inoue
    Char. design Masaru Kitao
    Musiche Hideki Taniuchi, Yoshihisa Hirano
    Studio Madhouse
    Rete Nippon Television
    1¬ TV 4 ottobre 2006 ľ 26 giugno 2007
    Episodi 37 (completa) + Ep 38 Alternative Ending
    Aspect ratio 16:9
    Durata ep. 23 min
    Rete it. MTV
    1¬ TV it. 28 ottobre 2008 ľ 9 giugno 2009
    Episodi it. 37 (completa)
    Dir. dopp. it. Anton Giulio Castagna
    Genere Mistero Poliziesco Psicologico Soprannaturale

    Screenshots
     




    Dati Tecnici
     
    General
    Unique ID : 81280091814073785222243961923582660987 (0x3D25F9ECE0DBE251EC98B04FDC35917B)
    Complete name : C:\Users\Administrator\Downloads\Torrent\Death Note ITA\1 Rinascita.mkv
    Format : Matroska
    Format version : Version 4 / Version 2
    File size : 294 MiB
    Duration : 22 min 57 s
    Overall bit rate : 1 792 kb/s
    Writing application : Lavf57.37.101
    Writing library : Lavf57.37.101

    Video
    ID : 1
    Format : HEVC
    Format/Info : High Efficiency Video Coding
    Format profile : [email protected]@Main
    Codec ID : V_MPEGH/ISO/HEVC
    Duration : 22 min 57 s
    Bit rate : 1 308 kb/s
    Width : 1 920 pixels
    Height : 1 080 pixels
    Display aspect ratio : 16:9
    Frame rate mode : Constant
    Frame rate : 23.976 (24000/1001) FPS
    Color space : YUV
    Chroma subsampling : 4:2:0
    Bit depth : 8 bits
    Bits/(Pixel*Frame) : 0.026
    Stream size : 215 MiB (73%)
    Writing library : x265 1.9:[Windows][GCC 5.2.0][64 bit] 8bit
    Encoding settings : wpp / ctu=64 / min-cu-size=8 / max-tu-size=32 / tu-intra-depth=3 / tu-inter-depth=3 / me=3 / subme=4 / merange=57 / rect / amp / max-merge=4 / temporal-mvp / no-early-skip / rdpenalty=0 / no-tskip / no-tskip-fast / strong-intra-smoothing / no-lossless / no-cu-lossless / no-constrained-intra / no-fast-intra / open-gop / no-temporal-layers / interlace=0 / keyint=250 / min-keyint=23 / scenecut=40 / rc-lookahead=40 / lookahead-slices=0 / bframes=8 / bframe-bias=0 / b-adapt=2 / ref=5 / limit-refs=1 / limit-modes / weightp / weightb / aq-mode=1 / qg-size=32 / aq-strength=1.00 / cbqpoffs=0 / crqpoffs=0 / rd=6 / psy-rd=2.00 / rdoq-level=2 / psy-rdoq=1.00 / signhide / deblock / sao / no-sao-non-deblock / b-pyramid / cutree / no-intra-refresh / rc=crf / crf=22.0 / qcomp=0.60 / qpmin=0 / qpmax=51 / qpstep=4 / ipratio=1.40 / pbratio=1.30
    Default : Yes
    Forced : No
    Statistics Tags Issue : mkvmerge v9.0.1 ('Obstacles') 64bit 2016-05-03 19:41:31 / Lavf57.37.101
    FromStats_BitRate : 8939459
    FromStats_Duration : 00:22:57.084000000
    FromStats_FrameCount : 33015
    FromStats_StreamSize : 1538705572

    Audio
    ID : 2
    Format : AC-3
    Format/Info : Audio Coding 3
    Format settings, Endianness : Big
    Codec ID : A_AC3
    Duration : 22 min 57 s
    Bit rate mode : Constant
    Bit rate : 448 kb/s
    Channel(s) : 2 channels
    Channel positions : Front: L R
    Sampling rate : 48.0 kHz
    Frame rate : 31.250 FPS (1536 SPF)
    Bit depth : 16 bits
    Compression mode : Lossy
    Delay relative to video : -83 ms
    Stream size : 73.5 MiB (25%)
    Language : Italian
    Service kind : Complete Main
    Default : Yes
    Forced : Yes
    Statistics Tags Issue : mkvmerge v9.0.1 ('Obstacles') 64bit 2016-05-03 19:41:31 / Lavf57.37.101
    FromStats_BitRate : 448000
    FromStats_Duration : 00:22:57.024000000
    FromStats_FrameCount : 43032
    FromStats_StreamSize : 77113344

    Text
    ID : 3
    Format : ASS
    Codec ID : S_TEXT/ASS
    Codec ID/Info : Advanced Sub Station Alpha
    Compression mode : Lossless
    Writing library : Lavc57.45.100 ssa
    Language : Italian
    Default : Yes
    Forced : Yes
    Statistics Tags Issue : mkvmerge v9.0.1 ('Obstacles') 64bit 2016-05-03 19:41:31 / Lavf57.37.101
    FromStats_BitRate : 4
    FromStats_Duration : 00:22:51.008000000
    FromStats_FrameCount : 16
    FromStats_StreamSize : 650


    Download

    ** Contenuto Nascosto: Schiaccia il bottone RINGRAZIA per visualizzare i link **



    Referral Easybytez
    Referral Zapfile
    Ultima modifica di Zero; 10.08.2017 alle 16:26
  2. 23 utenti hanno ringraziato Zero per ci˛ che ha scritto.

    Allocator (31.05.2016), Arkham (28.05.2016), Desyre1994 (08.02.2017), enricojacko (11.04.2017), erriul (17.08.2016), Fagupo (30.04.2017), fedeyo (28.05.2016), garu87 (12.07.2016), gennosuke (27.06.2016), ilghigno (07.04.2017), jackour (18.02.2017), martufello (22.04.2017), Plinio78 (30.05.2016), sammyp (05.06.2016), stara2 (30.03.2017), Stekkasaurus (11.12.2016), stiwie (14.08.2017), Thulsadoom (28.05.2016), UltrAngel (14.06.2016), urizen95 (02.08.2016), WarHammer (31.12.2016), wizard84 (21.10.2016), yui79 (05.06.2016)

  3. #2
    Status
    Offline
    L'avatar di Zero
    Data Registrazione

    16.11.2012

    Messaggi

    1,903

    Ha ringraziato
    1 volte
    Ha Ricevuto 9,391 ringraziamenti in 1,371 discussioni volte
    Taggato
    0 Post(s)
    Aggiornato

Permessi di Scrittura

  • Tu non puoi inviare nuove discussioni
  • Tu non puoi inviare risposte
  • Tu non puoi inviare allegati
  • Tu non puoi modificare i tuoi messaggi
  •