Titolo: Death Race
Nazione: USA, Germany, UK
Anno: 2008
Genere: Action, Sci-Fi, Thriller
Durata: 105 min
Regia: Paul W.S. Anderson
Cast: Jason Statham, Joan Allen, Ian McShane, Tyrese Gibson


United States, 2012. Jensen Ames Ŕ un ex carcerato che vorrebbe rimanere fuori dal giro con un lavoro onesto, una moglie comprensiva e una bambina nata dalla loro unione. I tempi sono difficili, la crisi finanziaria in cui versa il paese crea tensioni e affama i cittadini che trovano negli sport estremi una via di fuga agli affanni quotidiani. Dopo essere stato licenziato e aver ritirato l'ultimo stipendio, Jensen torna a casa dove viene aggredito e abbattuto con un narcotico. Al risveglio stringe un coltello al fianco della moglie ferita a morte. Arrestato e innocente, viene condotto a Terminal Island, un penitenziario di massima sicurezza in mezzo all'oceano. Ingaggiato dall'algida direttrice Warden Hennessey, disputerÓ una gara di automobili tecnicamente modificate e armate di mitraglie e lanciafiamme. Costretto a gareggiare con l'identitÓ e la maschera di Frank(enstein), un ex detenuto pilota morto in un incidente, Jensen dovrÓ vincere la corsa in cambio della libertÓ. Ma le automobili della "death race" non saranno l'unica cosa truccata dentro un gioco spedito e sporco.

Nome Versione: PirateMKV
Fonte Video: BluRay
Fonte Audio: BluRay



 






 

General
Unique ID : 217969318809564067643478407782979199303 (0xA3FB5D22582561EB9792B7C41A4DE147)
Complete name : C:\Users\Administrator\Downloads\Death Race\mux\Death Race - Extended Version (2008) BDRip 720p HEVC ITA ENG AC3 ITA ENG Sub PirateMKV.mkv
Format : Matroska
Format version : Version 4 / Version 2
File size : 3.43 GiB
Duration : 1h 50mn
Overall bit rate : 4 435 Kbps
Movie name : Death Race - Extended Version (2008) - PirateMKV
Encoded date : UTC 2016-05-22 08:00:30
Writing application : mkvmerge v9.1.0 ('Little Earthquakes') 64bit
Writing library : libebml v1.3.3 libmatroska v1.4.4 / Lavf57.36.100

Video
ID : 1
Format : HEVC
Format/Info : High Efficiency Video Coding
Format profile : [email protected]@Main
Codec ID : V_MPEGH/ISO/HEVC
Duration : 1h 50mn
Bit rate : 3 153 Kbps
Width : 1 280 pixels
Height : 544 pixels
Display aspect ratio : 2.35:1
Frame rate mode : Constant
Frame rate : 23.976 (24000/1001) fps
Color space : YUV
Chroma subsampling : 4:2:0
Bit depth : 8 bits
Bits/(Pixel*Frame) : 0.189
Stream size : 2.44 GiB (71%)
Writing library : x265 1.9 170-28cf9adfc82e:[Windows][GCC 5.3.0][64 bit] 8bit
Encoding settings : wpp / ctu=64 / min-cu-size=8 / max-tu-size=32 / tu-intra-depth=3 / tu-inter-depth=3 / me=2 / subme=4 / merange=57 / no-rect / no-amp / max-merge=3 / temporal-mvp / no-early-skip / no-recursion-skip / rdpenalty=0 / no-tskip / no-tskip-fast / strong-intra-smoothing / no-lossless / no-cu-lossless / no-constrained-intra / fast-intra / open-gop / no-temporal-layers / interlace=0 / keyint=250 / min-keyint=23 / scenecut=40 / rc-lookahead=40 / lookahead-slices=0 / bframes=8 / bframe-bias=0 / b-adapt=2 / ref=5 / limit-refs=3 / limit-modes / weightp / weightb / aq-mode=3 / qg-size=32 / aq-strength=2.00 / cbqpoffs=0 / crqpoffs=0 / rd=4 / psy-rd=1.00 / rdoq-level=0 / psy-rdoq=0.00 / no-rd-refine / signhide / deblock=-1:-1 / sao / no-sao-non-deblock / b-pyramid / no-cutree / no-intra-refresh / rc=crf / crf=22.0 / qcomp=0.60 / qpmin=0 / qpmax=51 / qpstep=4 / vbv-maxrate=12000 / vbv-bufsize=12000 / crf-max=0.0 / ipratio=1.40 / pbratio=1.30
Language : English
Default : Yes
Forced : No
Color range : Limited
Matrix coefficients : BT.709

Audio #1
ID : 2
Format : AC-3
Format/Info : Audio Coding 3
Mode extension : CM (complete main)
Format settings, Endianness : Big
Codec ID : A_AC3
Duration : 1h 50mn
Bit rate mode : Constant
Bit rate : 640 Kbps
Channel(s) : 6 channels
Channel positions : Front: L C R, Side: L R, LFE
Sampling rate : 48.0 KHz
Frame rate : 31.250 fps (1536 spf)
Compression mode : Lossy
Stream size : 506 MiB (14%)
Title : AC3 5.1
Language : Italian
Default : Yes
Forced : No

Audio #2
ID : 3
Format : AC-3
Format/Info : Audio Coding 3
Mode extension : CM (complete main)
Format settings, Endianness : Big
Codec ID : A_AC3
Duration : 1h 50mn
Bit rate mode : Constant
Bit rate : 640 Kbps
Channel(s) : 6 channels
Channel positions : Front: L C R, Side: L R, LFE
Sampling rate : 48.0 KHz
Frame rate : 31.250 fps (1536 spf)
Compression mode : Lossy
Stream size : 506 MiB (14%)
Title : AC3 5.1
Language : English
Default : No
Forced : No

Text #1
ID : 4
Format : UTF-8
Codec ID : S_TEXT/UTF8
Codec ID/Info : UTF-8 Plain Text
Duration : 1h 50mn
Bit rate : 1 bps
Count of elements : 41
Stream size : 1.27 KiB (0%)
Title : Forced
Language : Italian
Default : Yes
Forced : Yes

Text #2
ID : 5
Format : UTF-8
Codec ID : S_TEXT/UTF8
Codec ID/Info : UTF-8 Plain Text
Duration : 1h 50mn
Bit rate : 37 bps
Count of elements : 941
Stream size : 30.0 KiB (0%)
Title : Normal
Language : Italian
Default : No
Forced : No

Text #3
ID : 6
Format : UTF-8
Codec ID : S_TEXT/UTF8
Codec ID/Info : UTF-8 Plain Text
Duration : 1h 50mn
Bit rate : 37 bps
Count of elements : 951
Stream size : 30.0 KiB (0%)
Title : SDH
Language : English
Default : No
Forced : No

Menu
00:00:00.000 : en:00:00:00.000
00:04:10.584 : en:00:04:10.584
00:12:15.068 : en:00:12:15.068
00:16:05.339 : en:00:16:05.339
00:19:26.499 : en:00:19:26.499
00:24:13.786 : en:00:24:13.786
00:33:04.441 : en:00:33:04.441
00:37:19.279 : en:00:37:19.279
00:43:45.414 : en:00:43:45.414
00:52:14.173 : en:00:52:14.173
00:59:36.698 : en:00:59:36.698
01:03:48.950 : en:01:03:48.950
01:07:46.104 : en:01:07:46.104
01:12:45.444 : en:01:12:45.444
01:20:16.645 : en:01:20:16.645
01:24:47.457 : en:01:24:47.457
01:28:38.271 : en:01:28:38.271
01:33:25.642 : en:01:33:25.642
01:41:49.103 : en:01:41:49.103
01:44:33.392 : en:01:44:33.392






** Contenuto Nascosto: Schiaccia il bottone RINGRAZIA per visualizzare i link **


Password: W9uf3209bh0Ped970N