HomePage - Come attivare il proprio account - Regole del Forum

HOT NEWS!!!

Flight 616 - Stagione 1 (2016) .mp4 WebRip 576p x264 AAC ITA

Doctor Strange (2016)


Il neurochirurgo Stephen Strange vede la sua vita cambiare per sempre dopo che un terribile incidente automobilistico lo priva dell’uso delle mani. Quando la medicina tradizionale si dimostra incapace di guarirlo, Strange è costretto cercare una cura in un luogo inaspettato: una misteriosa enclave nota come Kamar-Taj.


1080p
720p
UNTOUCHED-1080p
BLURAY FULL
BLURAY FULL 3D
Flight 616 - Stagione 1 (2016) .mp4 WebRip 576p x264 AAC ITA
Risultati da 1 a 6 di 6
  1. #1
    Status
    Offline
    L'avatar di corey91
    Data Registrazione

    24.05.2013

    Messaggi

    1,037

    Ha ringraziato
    34 volte
    Ha Ricevuto 3,627 ringraziamenti in 486 discussioni volte
    Taggato
    0 Post(s)

    Flight 616 - Stagione 1 (2016) [Completa] .mp4 WebRip 576p x264 AAC ITA




    E' partito il viaggio delle otto coppie protagoniste di Flight 616, il primo adventure dating show della tv italiana condotto da Paola Barale, che torna al timone di un programma tutto suo a un anno di distanza dalla partecipazione a Pechino Express. Il giro del mondo in sei tappe ha come protagonisti sedici single - otto donne e otto uomini che non si conoscono tra di loro – e il nuovo format di Italia 1 diventa così un viaggio lungo 45 mila chilometri fatto di intrecci inaspettati, inganni e improvvisi avvicinamenti.


    Rapporto Avinaptic:
     
    General
    Complete name : Flight616.E1.WebRip-corey91.mp4
    Format : MPEG-4
    Format profile : Base Media
    Codec ID : isom
    File size : 841 MiB
    Duration : 1h 51mn
    Overall bit rate mode : Variable
    Overall bit rate : 1 056 Kbps
    Writing application : Lavf56.40.101


    Video
    ID : 1
    Format : AVC
    Format/Info : Advanced Video Codec
    Format profile : [email protected]
    Format settings, CABAC : Yes
    Format settings, ReFrames : 4 frames
    Codec ID : avc1
    Codec ID/Info : Advanced Video Coding
    Duration : 1h 51mn
    Bit rate : 1 000 Kbps
    Width : 1 024 pixels
    Height : 576 pixels
    Display aspect ratio : 16:9
    Frame rate mode : Constant
    Frame rate : 25.000 fps
    Color space : YUV
    Chroma subsampling : 4:2:0
    Bit depth : 8 bits
    Scan type : Progressive
    Bits/(Pixel*Frame) : 0.068
    Stream size : 786 MiB (93%)
    Writing library : x264 core 142
    Encoding settings : cabac=1 / ref=3 / deblock=1:0:0 / analyse=0x3:0x113 / me=hex / subme=7 / psy=1 / psy_rd=1.00:0.00 / mixed_ref=1 / me_range=16 / chroma_me=1 / trellis=1 / 8x8dct=1 / cqm=0 / deadzone=21,11 / fast_pskip=1 / chroma_qp_offset=-2 / threads=3 / lookahead_threads=1 / sliced_threads=0 / nr=0 / decimate=1 / interlaced=0 / bluray_compat=0 / constrained_intra=0 / bframes=3 / b_pyramid=2 / b_adapt=1 / b_bias=0 / direct=1 / weightb=1 / open_gop=0 / weightp=2 / keyint=250 / keyint_min=25 / scenecut=40 / intra_refresh=0 / rc_lookahead=40 / rc=cbr / mbtree=1 / bitrate=1000 / ratetol=1.0 / qcomp=0.60 / qpmin=0 / qpmax=69 / qpstep=4 / vbv_maxrate=1000 / vbv_bufsize=2000 / nal_hrd=none / filler=0 / ip_ratio=1.40 / aq=1:1.00


    Audio
    ID : 2
    Format : AAC
    Format/Info : Advanced Audio Codec
    Format profile : LC
    Codec ID : 40
    Duration : 1h 51mn
    Duration_LastFrame : -19ms
    Bit rate mode : Variable
    Bit rate : 64.0 Kbps
    Maximum bit rate : 1 000 Kbps
    Channel(s) : 2 channels
    Channel positions : Front: L R
    Sampling rate : 48.0 KHz
    Compression mode : Lossy
    Stream size : 51.0 MiB (6%)



    Screenshots:
     







    Link Download:
    ** Contenuto Nascosto: Schiaccia il bottone RINGRAZIA per visualizzare i link **
    Ultima modifica di corey91; 17.06.2016 alle 19:15
    Rinnovate o abbonatevi da qui per sostenere il mio lavoro, grazie!
  2. 3 utenti hanno ringraziato corey91 per ciò che ha scritto.

    Fuera78 (14.05.2016), MARCOTIZIANO (04.06.2016), PINO600 (09.06.2016)

  3. #2
    Status
    Offline
    L'avatar di corey91
    Data Registrazione

    24.05.2013

    Messaggi

    1,037

    Ha ringraziato
    34 volte
    Ha Ricevuto 3,627 ringraziamenti in 486 discussioni volte
    Taggato
    0 Post(s)
    2°puntata di ieri sera inserita
    Rinnovate o abbonatevi da qui per sostenere il mio lavoro, grazie!
  4. #3
    Status
    Offline
    L'avatar di corey91
    Data Registrazione

    24.05.2013

    Messaggi

    1,037

    Ha ringraziato
    34 volte
    Ha Ricevuto 3,627 ringraziamenti in 486 discussioni volte
    Taggato
    0 Post(s)
    3°puntata di ieri sera inserita
    Rinnovate o abbonatevi da qui per sostenere il mio lavoro, grazie!
  5. #4
    Status
    Offline
    L'avatar di corey91
    Data Registrazione

    24.05.2013

    Messaggi

    1,037

    Ha ringraziato
    34 volte
    Ha Ricevuto 3,627 ringraziamenti in 486 discussioni volte
    Taggato
    0 Post(s)
    4°puntata di ieri sera inserita
    Rinnovate o abbonatevi da qui per sostenere il mio lavoro, grazie!
  6. #5
    Status
    Offline
    L'avatar di corey91
    Data Registrazione

    24.05.2013

    Messaggi

    1,037

    Ha ringraziato
    34 volte
    Ha Ricevuto 3,627 ringraziamenti in 486 discussioni volte
    Taggato
    0 Post(s)
    5°puntata di ieri sera inserita
    Rinnovate o abbonatevi da qui per sostenere il mio lavoro, grazie!
  7. #6
    Status
    Offline
    L'avatar di corey91
    Data Registrazione

    24.05.2013

    Messaggi

    1,037

    Ha ringraziato
    34 volte
    Ha Ricevuto 3,627 ringraziamenti in 486 discussioni volte
    Taggato
    0 Post(s)
    6°puntata di ieri sera inserita! Programma TV completo
    Rinnovate o abbonatevi da qui per sostenere il mio lavoro, grazie!

Permessi di Scrittura

  • Tu non puoi inviare nuove discussioni
  • Tu non puoi inviare risposte
  • Tu non puoi inviare allegati
  • Tu non puoi modificare i tuoi messaggi
  •