HomePage - Come attivare il proprio account - Regole del Forum

HOT NEWS!!!

Genesis - Nursery Cryme (1971) Pop/Rock - Flac

Black Panther (2018)


Ambientato dopo gli eventi raccontati in Captain America: Civil War, vediamo T’Challa fare ritorno nell’isolata e tecnologicamente avanzata nazione africana di Wakanda dopo la morte di suo padre, il re di Wakanda, per succedergli al trono e prendere il suo posto come legittimo re.


1080p
720p
UNTOUCHED-1080p
BLURAY FULL
BLURAY FULL 3D
Genesis - Nursery Cryme (1971) Pop/Rock - Flac
Risultati da 1 a 1 di 1
  1. #1
    Status
    Offline
    L'avatar di COSMONAUTA
    Data Registrazione

    06.10.2011

    Messaggi

    24,323

    Ha ringraziato
    10 volte
    Ha Ricevuto 152,791 ringraziamenti in 14,199 discussioni volte
    Taggato
    17 Post(s)

    Genesis - Nursery Cryme (1971) Pop/Rock - Flac

    Genesis - Nursery Cryme



    Pubblicazione 12 novembre 1971
    Genere Progressive Rock
    Etichetta Charisma
    Produttore John Anthony


    ? il terzo lavoro dei Genesis ed il primo LP inciso dai Genesis nella formazione storica che rester? immutata fino all'abbandono da parte di Peter Gabriel nel 1975; il titolo allude alle Nursery Rhymes, filastrocche per bambini molto diffuse nel mondo anglosassone, e gioca con l'assonanza con di rhyme (rima) con crime (crimine). Il riferimento ? probabilmente dovuto al brano di apertura The Musical Box, oggetto anche della celebre copertina disegnata da Paul Whitehead; i testi della canzone sono incentrati su una storia di bimbi, uno dei quali viene "decapitato con grazia" da una coetanea.
    Tutto l'album si snoda in un'atmosfera favolistica che a volte - in pieno contrasto con l'allegra spensieratezza delle filastrocche infantili - sfocia nel macabro "While Henry Hamilton-Smythe minor was playing croquet with Cynthia Jane De Blaise-William, sweet-smiling Cynthia raised her mallet high and gracefully removed Henry's head. " (the Musical Box), e ancora: "Harold the Barrel cut off his toes and he served them all for tea" (Harold the Barrel).
    In brani come "Seven Stones", "Harlequin" e "For Absent Friends", i Genesis creano delicati affreshi musicali di inimitabile freschezza e raffinatezza stilistica.
    In "The Fountain of Salmacis" il gruppo si esprime al meglio; le liriche di Gabriel si ispirano all'antichit? classica, ritmica e melodia creano un melange di sensazioni forti e delicate intervallate da un lungo e struggente assolo di Steve Hackett.
    Ma il brano di punta dell'album resta The Musical Box; cambi di ritmo e melodia scandiscono la narrazione di una tragica favola, il finale ? da brividi: la voce di Gabriel - prima rocamente ipnotica - diventa imperiosa in un crescendo prepotente ed irrefrenabile di incomparabile intensit?.


    Tracklist:
    * The Musical Box (10:27)
    * For Absent Friends (1:48)
    * The Return Of The Giant Hogweed (8:12)
    * Seven Stones (5:09)
    * Harold The Barrel (3:01)
    * Harlequin (2:55)
    * The Fountain Of Salmacis (7:56)

    Dati tecnici:

    Exact Audio Copy V0.99 prebeta 5 from 4. May 2009

    EAC extraction logfile from 17. July 2010, 8:21

    Genesis / Nursery Cryme

    Used drive : TSSTcorpCDDVDW SH-S202J Adapter: 3 ID: 0

    Read mode : Secure
    Utilize accurate stream : Yes
    Defeat audio cache : Yes
    Make use of C2 pointers : No

    Read offset correction : 6
    Overread into Lead-In and Lead-Out : No
    Fill up missing offset samples with silence : Yes
    Delete leading and trailing silent blocks : No
    Null samples used in CRC calculations : Yes
    Used interface : Native Win32 interface for Win NT & 2000
    Gap handling : Appended to previous track

    Used output format : User Defined Encoder
    Selected bitrate : 768 kBit/s
    Quality : High
    Add ID3 tag : No
    Command line compressor : C:\Program Files\Exact Audio Copy\Flac\flac.exe
    Additional command line options : -8 -V -T "ARTIST=%a" -T "TITLE=%t" -T "ALBUM=%g" -T "DATE=%y" -T "TRACKNUMBER=%n" -T "GENRE=%m" -T "COMMENT=EAC FLAC -8" %s


    TOC of the extracted CD

    Track | Start | Length | Start sector | End sector
    ---------------------------------------------------------
    1 | 0:00.00 | 10:31.55 | 0 | 47379
    2 | 10:31.55 | 1:47.47 | 47380 | 55451
    3 | 12:19.27 | 8:12.18 | 55452 | 92369
    4 | 20:31.45 | 5:11.20 | 92370 | 115714
    5 | 25:42.65 | 3:00.65 | 115715 | 129279
    6 | 28:43.55 | 2:56.42 | 129280 | 142521
    7 | 31:40.22 | 7:55.03 | 142522 | 178149


    Track 1

    Filename E:\Musica\Genesis\Genesis - Nursery Cryme (1971) [FLAC]\01 - The Musical Box.wav

    Pre-gap length 0:00:02.00

    Peak level 100.0 %
    Track quality 100.0 %
    Test CRC D2E6499D
    Copy CRC D2E6499D
    Accurately ripped (confidence 26) [67C57D14]
    Copy OK

    Track 2

    Filename E:\Musica\Genesis\Genesis - Nursery Cryme (1971) [FLAC]\02 - For Absent Friends.wav

    Pre-gap length 0:00:04.23

    Peak level 52.7 %
    Track quality 100.0 %
    Test CRC 366FEF34
    Copy CRC 366FEF34
    Accurately ripped (confidence 27) [A9BC0632]
    Copy OK

    Track 3

    Filename E:\Musica\Genesis\Genesis - Nursery Cryme (1971) [FLAC]\03 - The Return Of The Giant Hogweed.wav

    Pre-gap length 0:00:03.50

    Peak level 100.0 %
    Track quality 100.0 %
    Test CRC ED7250AF
    Copy CRC ED7250AF
    Accurately ripped (confidence 27) [068801F3]
    Copy OK

    Track 4

    Filename E:\Musica\Genesis\Genesis - Nursery Cryme (1971) [FLAC]\04 - Seven Stones.wav

    Pre-gap length 0:00:02.05

    Peak level 98.5 %
    Track quality 100.0 %
    Test CRC 5D60483D
    Copy CRC 5D60483D
    Accurately ripped (confidence 27) [D4674BDB]
    Copy OK

    Track 5

    Filename E:\Musica\Genesis\Genesis - Nursery Cryme (1971) [FLAC]\05 - Harold The Barrel.wav

    Pre-gap length 0:00:02.28

    Peak level 92.7 %
    Track quality 100.0 %
    Test CRC 8DC1282A
    Copy CRC 8DC1282A
    Accurately ripped (confidence 27) [E98510BA]
    Copy OK

    Track 6

    Filename E:\Musica\Genesis\Genesis - Nursery Cryme (1971) [FLAC]\06 - Harlequin.wav

    Pre-gap length 0:00:01.38

    Peak level 53.3 %
    Track quality 100.0 %
    Test CRC 380A9F4E
    Copy CRC 380A9F4E
    Accurately ripped (confidence 27) [1BC8A8E2]
    Copy OK

    Track 7

    Filename E:\Musica\Genesis\Genesis - Nursery Cryme (1971) [FLAC]\07 - The Fountain Of Salmacis.wav

    Pre-gap length 0:00:03.32

    Peak level 100.0 %
    Track quality 100.0 %
    Test CRC E781249E
    Copy CRC E781249E
    Accurately ripped (confidence 27) [0C3493CE]
    Copy OK


    All tracks accurately ripped

    No errors occurred

    End of status report







    http://www.filesonic.com/file/2783092375

    http://www.filejungle.com/f/TyFM8Y
    Contribuisci alla raccolta fondi per il nuovo MondoWarezz!
  2. 3 utenti hanno ringraziato COSMONAUTA per ciò che ha scritto.

    maxbanana (16.08.2016), nursery (24.11.2016), sammy7 (21.12.2016)

Discussioni Simili

  1. Genesis - Invisible Touch (1986) Pop - Flac
    Di COSMONAUTA nel forum FLAC (LOSSLESS)
    Risposte: 0
    Ultimo Messaggio: 14.12.2011, 20:14
  2. Genesis - Cryme Of Passion (1972) Pop - Flac
    Di COSMONAUTA nel forum FLAC (LOSSLESS)
    Risposte: 0
    Ultimo Messaggio: 28.11.2011, 10:15

Permessi di Scrittura

  • Tu non puoi inviare nuove discussioni
  • Tu non puoi inviare risposte
  • Tu non puoi inviare allegati
  • Tu non puoi modificare i tuoi messaggi
  •