HomePage - Come attivare il proprio account - Regole del Forum

HOT NEWS!!!

Ghost - Fantasma (1990) BDRip 720p HEVC ITA ENG AC3 ITA ENG Sub PirateMKV

Rogue one-a Star Wars story (2016)


Rogue One A Star Wars Story il primo capitolo di una nuova avventurosa serie cinematografica che esplora i personaggi e gli eventi che ruotano intorno alla saga di Guerre Stellari.


1080p
720p
UNTOUCHED-1080p
BLURAY FULL
BLURAY FULL 3D
Ghost - Fantasma (1990) BDRip 720p HEVC ITA ENG AC3 ITA ENG Sub PirateMKV


Avviso a tutti i lettori di mondowarezz.Le sezioni Ebook,Quotidiani e Riviste.Sono momentaneamente chiuse.Vi preghiamo di non intasare la chatbox con le stesse domande.Grazie
Risultati da 1 a 1 di 1
  1. #1
    Status
    Offline
    L'avatar di PirateMKV
    Data Registrazione

    08.04.2015

    Messaggi

    2,781

    Ha ringraziato
    85 volte
    Ha Ricevuto 14,447 ringraziamenti in 2,507 discussioni volte
    Taggato
    1 Post(s)

    Ghost - Fantasma (1990) BDRip 720p HEVC ITA ENG AC3 ITA ENG Sub PirateMKV






    Titolo: Ghost
    Nazione: USA
    Anno: 1990
    Genere: Drama, Fantasy, Romance
    Durata: 127 min
    Regia: Jerry Zucker
    Cast: Patrick Swayze, Demi Moore, Whoopi Goldberg, Tony Goldwyn


    Jerry Zucker, uno dei tre registi dell' Aereo pi pazzo del mondo, abbandona il demenziale per entrare nei ranghi del cinema "per tutti i gusti". Il film studiato fin troppo per le platee, in maniera schematica, racchiude il versante romantico e comico, quello thriller e di fantascienza. Un uomo viene ucciso e attraverso una sgangherata medium cerca di entrare in contatto con la fidanzata. Questa pellicola fa parte del periodo di moralismo e pseudoreligione, durante la presidenza di Bush, che ha riguardato molti film creati come fiabe, ma lontani anni luce dalla bravura di un Frank Capra. Enorme successo di pubblico.

    Nome Versione: PirateMKV
    Fonte Video: BluRay
    Fonte Audio: BluRay



     






     

    General
    Unique ID : 238272948109603502382547041821797100512 (0xB341B35891159A47A905CE57D177ABE0)
    Complete name : E:\MON\Ghost\Ghost - Fantasma (1990) BDRip 720p HEVC ITA ENG AC3 ITA ENG Sub PirateMKV.mkv
    Format : Matroska
    Format version : Version 4 / Version 2
    File size : 2.82 GiB
    Duration : 2h 6mn
    Overall bit rate : 3 187 Kbps
    Movie name : Ghost - Fantasma (1990) - PirateMKV
    Encoded date : UTC 2016-05-03 19:10:35
    Writing application : mkvmerge v9.1.0 ('Little Earthquakes') 64bit
    Writing library : libebml v1.3.3 libmatroska v1.4.4 / Lavf57.34.103

    Video
    ID : 1
    Format : HEVC
    Format/Info : High Efficiency Video Coding
    Format profile : [email protected]@Main
    Codec ID : V_MPEGH/ISO/HEVC
    Duration : 2h 6mn
    Bit rate : 1 905 Kbps
    Width : 1 280 pixels
    Height : 720 pixels
    Display aspect ratio : 16:9
    Frame rate mode : Constant
    Frame rate : 23.976 (24000/1001) fps
    Color space : YUV
    Chroma subsampling : 4:2:0
    Bit depth : 8 bits
    Bits/(Pixel*Frame) : 0.086
    Stream size : 1.69 GiB (60%)
    Writing library : x265 1.9:[Windows][GCC 5.2.0][64 bit] 8bit
    Encoding settings : wpp / ctu=64 / min-cu-size=8 / max-tu-size=32 / tu-intra-depth=3 / tu-inter-depth=3 / me=2 / subme=4 / merange=57 / no-rect / no-amp / max-merge=3 / temporal-mvp / no-early-skip / rdpenalty=0 / no-tskip / no-tskip-fast / strong-intra-smoothing / no-lossless / no-cu-lossless / no-constrained-intra / fast-intra / open-gop / no-temporal-layers / interlace=0 / keyint=250 / min-keyint=23 / scenecut=40 / rc-lookahead=40 / lookahead-slices=0 / bframes=8 / bframe-bias=0 / b-adapt=2 / ref=5 / limit-refs=1 / limit-modes / weightp / weightb / aq-mode=1 / qg-size=32 / aq-strength=2.00 / cbqpoffs=0 / crqpoffs=0 / rd=4 / psy-rd=1.00 / rdoq-level=0 / psy-rdoq=0.00 / signhide / deblock=-1:-1 / sao / no-sao-non-deblock / b-pyramid / no-cutree / no-intra-refresh / rc=crf / crf=23.2 / qcomp=0.60 / qpmin=0 / qpmax=51 / qpstep=4 / vbv-maxrate=12000 / vbv-bufsize=12000 / crf-max=0.0 / ipratio=1.40 / pbratio=1.30
    Default : Yes
    Forced : No
    Color range : Limited
    Matrix coefficients : BT.709

    Audio #1
    ID : 2
    Format : AC-3
    Format/Info : Audio Coding 3
    Mode extension : CM (complete main)
    Format settings, Endianness : Big
    Codec ID : A_AC3
    Duration : 2h 6mn
    Bit rate mode : Constant
    Bit rate : 640 Kbps
    Channel(s) : 6 channels
    Channel positions : Front: L C R, Side: L R, LFE
    Sampling rate : 48.0 KHz
    Frame rate : 31.250 fps (1536 spf)
    Compression mode : Lossy
    Stream size : 580 MiB (20%)
    Title : AC3 5.1
    Language : Italian
    Default : Yes
    Forced : No

    Audio #2
    ID : 3
    Format : AC-3
    Format/Info : Audio Coding 3
    Mode extension : CM (complete main)
    Format settings, Endianness : Big
    Codec ID : A_AC3
    Duration : 2h 6mn
    Bit rate mode : Constant
    Bit rate : 640 Kbps
    Channel(s) : 6 channels
    Channel positions : Front: L C R, Side: L R, LFE
    Sampling rate : 48.0 KHz
    Frame rate : 31.250 fps (1536 spf)
    Compression mode : Lossy
    Stream size : 580 MiB (20%)
    Title : AC3 5.1
    Language : English
    Default : No
    Forced : No

    Text #1
    ID : 4
    Format : UTF-8
    Codec ID : S_TEXT/UTF8
    Codec ID/Info : UTF-8 Plain Text
    Duration : 57mn 39s
    Bit rate : 0 bps
    Count of elements : 8
    Stream size : 203 Bytes (0%)
    Title : Forced
    Language : Italian
    Default : Yes
    Forced : Yes

    Text #2
    ID : 5
    Format : UTF-8
    Codec ID : S_TEXT/UTF8
    Codec ID/Info : UTF-8 Plain Text
    Duration : 1h 59mn
    Bit rate : 43 bps
    Count of elements : 1298
    Stream size : 38.3 KiB (0%)
    Title : Normal
    Language : Italian
    Default : No
    Forced : No

    Text #3
    ID : 6
    Format : UTF-8
    Codec ID : S_TEXT/UTF8
    Codec ID/Info : UTF-8 Plain Text
    Duration : 1h 59mn
    Bit rate : 59 bps
    Count of elements : 1560
    Stream size : 52.4 KiB (0%)
    Title : SDH
    Language : English
    Default : No
    Forced : No

    Menu
    00:00:00.000 : en:00:00:00.000
    00:11:08.251 : en:00:11:08.251
    00:17:18.037 : en:00:17:18.037
    00:32:06.591 : en:00:32:06.591
    00:37:42.760 : en:00:37:42.760
    00:47:04.530 : en:00:47:04.530
    01:12:23.756 : en:01:12:23.756
    01:18:02.511 : en:01:18:02.511
    01:22:16.807 : en:01:22:16.807
    01:34:30.957 : en:01:34:30.957
    01:38:54.095 : en:01:38:54.095
    01:44:26.677 : en:01:44:26.677
    01:49:09.501 : en:01:49:09.501
    01:52:13.936 : en:01:52:13.936
    01:57:40.387 : en:01:57:40.387
    02:02:15.328 : en:02:02:15.328






    ** Contenuto Nascosto: Schiaccia il bottone RINGRAZIA per visualizzare i link **


    Password: W9uf3209bh0Ped970N
  2. 3 utenti hanno ringraziato PirateMKV per ci che ha scritto.

    Coby76 (03.02.2017), ertoro (16.11.2016), keijimaeda2013 (17.02.2017)

Permessi di Scrittura

  • Tu non puoi inviare nuove discussioni
  • Tu non puoi inviare risposte
  • Tu non puoi inviare allegati
  • Tu non puoi modificare i tuoi messaggi
  •