HomePage - Come attivare il proprio account - Regole del Forum

HOT NEWS!!!

The Hateful Eight (2015) BDRip 1080p HEVC ITA ENG AC3 ITA ENG Sub PirateMKV

Rogue one-a Star Wars story (2016)


Rogue One A Star Wars Story il primo capitolo di una nuova avventurosa serie cinematografica che esplora i personaggi e gli eventi che ruotano intorno alla saga di Guerre Stellari.


1080p
720p
UNTOUCHED-1080p
BLURAY FULL
BLURAY FULL 3D
The Hateful Eight (2015) BDRip 1080p HEVC ITA ENG AC3 ITA ENG Sub PirateMKV


Avviso a tutti i lettori di mondowarezz.Le sezioni Ebook,Quotidiani e Riviste.Sono momentaneamente chiuse.Vi preghiamo di non intasare la chatbox con le stesse domande.Grazie
Risultati da 1 a 1 di 1
  1. #1
    Status
    Offline
    L'avatar di PirateMKV
    Data Registrazione

    08.04.2015

    Messaggi

    2,781

    Ha ringraziato
    85 volte
    Ha Ricevuto 14,521 ringraziamenti in 2,508 discussioni volte
    Taggato
    1 Post(s)

    The Hateful Eight (2015) BDRip 1080p HEVC ITA ENG AC3 ITA ENG Sub PirateMKV






    Titolo: The Hateful Eight
    Nazione: USA
    Anno: 2015
    Genere: Crime, Drama, Mystery
    Durata: 187 min
    Regia: Quentin Tarantino
    Cast: Samuel L. Jackson, Kurt Russell, Jennifer Jason Leigh, Walton Goggins


    Lungo i sentieri rocciosi del Wyoming, una diligenza corre pi forte del vento. Un vento che promette furia e tempesta. Ultima corsa per Red Rock, la diligenza si arresta davanti al Maggiore Marquis Warren, diligence stopper e cacciatore di taglie nero che ha servito la causa dell'Unione. Ospitato con riserva da John Ruth, bounty hunter che crede nella giustizia, meno negli uomini, Warren lo rassicura sulle sue buone intenzioni. Il viaggio riprende ma il caratteraccio di Daisy Domergue, canaglia in gonnella condotta alla forca, lo interrompe di nuovo. La sosta imprevista incontra e carica tra chiacchiere e scetticismo Chris Mannix, un sudista rinnegato promosso sceriffo di Red Rock. Incalzati dal blizzard, trovano rifugio nell'emporio di Minnie dove li attendono un caff caldo e quattro sconosciuti. Interrogati a turno dal diffidente John Ruth probabilmente nessuno chi dice di essere.

    Nome Versione: PirateMKV
    Fonte Video: BluRay
    Fonte Audio: BluRay



     






     

    General
    Unique ID : 202077347362102012237417156630180427369 (0x9806AE72A2BA7E5F81D4B14C12AE7669)
    Complete name : C:\Users\Administrator\Downloads\hateful_eight\mux \The Hateful Eight (2015) BDRip 1080p HEVC ITA ENG AC3 ITA ENG Sub PirateMKV.mkv
    Format : Matroska
    Format version : Version 4 / Version 2
    File size : 3.59 GiB
    Duration : 2h 47mn
    Overall bit rate : 3 060 Kbps
    Movie name : The Hateful Eight (2015) - PirateMKV
    Encoded date : UTC 2016-05-04 06:01:20
    Writing application : mkvmerge v9.1.0 ('Little Earthquakes') 64bit
    Writing library : libebml v1.3.3 libmatroska v1.4.4 / Lavf57.28.100

    Video
    ID : 1
    Format : HEVC
    Format/Info : High Efficiency Video Coding
    Format profile : [email protected]@Main
    Codec ID : V_MPEGH/ISO/HEVC
    Duration : 2h 47mn
    Bit rate : 2 226 Kbps
    Width : 1 920 pixels
    Height : 696 pixels
    Display aspect ratio : 2.759
    Frame rate mode : Constant
    Frame rate : 23.976 (24000/1001) fps
    Color space : YUV
    Chroma subsampling : 4:2:0
    Bit depth : 8 bits
    Bits/(Pixel*Frame) : 0.069
    Stream size : 2.61 GiB (73%)
    Writing library : x265 1.9:[Windows][GCC 5.2.0][64 bit] 8bit
    Encoding settings : wpp / ctu=64 / min-cu-size=8 / max-tu-size=32 / tu-intra-depth=3 / tu-inter-depth=3 / me=2 / subme=4 / merange=57 / no-rect / no-amp / max-merge=3 / temporal-mvp / no-early-skip / rdpenalty=0 / no-tskip / no-tskip-fast / strong-intra-smoothing / no-lossless / no-cu-lossless / no-constrained-intra / fast-intra / open-gop / no-temporal-layers / interlace=0 / keyint=250 / min-keyint=23 / scenecut=40 / rc-lookahead=40 / lookahead-slices=0 / bframes=8 / bframe-bias=0 / b-adapt=2 / ref=5 / limit-refs=1 / limit-modes / weightp / weightb / aq-mode=1 / qg-size=32 / aq-strength=2.00 / cbqpoffs=0 / crqpoffs=0 / rd=4 / psy-rd=1.00 / rdoq-level=0 / psy-rdoq=0.00 / signhide / deblock=-1:-1 / sao / no-sao-non-deblock / b-pyramid / no-cutree / no-intra-refresh / rc=crf / crf=22.5 / qcomp=0.60 / qpmin=0 / qpmax=51 / qpstep=4 / vbv-maxrate=12000 / vbv-bufsize=12000 / crf-max=0.0 / ipratio=1.40 / pbratio=1.30
    Language : English
    Default : Yes
    Forced : No
    Color range : Limited
    Matrix coefficients : BT.709

    Audio #1
    ID : 2
    Format : AC-3
    Format/Info : Audio Coding 3
    Mode extension : CM (complete main)
    Format settings, Endianness : Big
    Codec ID : A_AC3
    Duration : 2h 47mn
    Bit rate mode : Constant
    Bit rate : 192 Kbps
    Channel(s) : 2 channels
    Channel positions : Front: L R
    Sampling rate : 48.0 KHz
    Frame rate : 31.250 fps (1536 spf)
    Compression mode : Lossy
    Stream size : 230 MiB (6%)
    Title : AC3 2.0
    Language : Italian
    Default : Yes
    Forced : No

    Audio #2
    ID : 3
    Format : AC-3
    Format/Info : Audio Coding 3
    Mode extension : CM (complete main)
    Format settings, Endianness : Big
    Codec ID : A_AC3
    Duration : 2h 47mn
    Bit rate mode : Constant
    Bit rate : 640 Kbps
    Channel(s) : 6 channels
    Channel positions : Front: L C R, Side: L R, LFE
    Sampling rate : 48.0 KHz
    Frame rate : 31.250 fps (1536 spf)
    Compression mode : Lossy
    Stream size : 768 MiB (21%)
    Title : AC3 5.1
    Language : English
    Default : No
    Forced : No

    Text #1
    ID : 4
    Format : UTF-8
    Codec ID : S_TEXT/UTF8
    Codec ID/Info : UTF-8 Plain Text
    Duration : 2h 15mn
    Bit rate : 0 bps
    Count of elements : 20
    Stream size : 479 Bytes (0%)
    Title : Forced
    Language : Italian
    Default : Yes
    Forced : Yes

    Text #2
    ID : 5
    Format : UTF-8
    Codec ID : S_TEXT/UTF8
    Codec ID/Info : UTF-8 Plain Text
    Duration : 2h 38mn
    Bit rate : 53 bps
    Count of elements : 1874
    Stream size : 62.5 KiB (0%)
    Title : Normal
    Language : Italian
    Default : No
    Forced : No

    Text #3
    ID : 6
    Format : UTF-8
    Codec ID : S_TEXT/UTF8
    Codec ID/Info : UTF-8 Plain Text
    Duration : 2h 47mn
    Bit rate : 66 bps
    Count of elements : 3045
    Stream size : 82.1 KiB (0%)
    Title : SDH
    Language : English
    Default : No
    Forced : No






    ** Contenuto Nascosto: Schiaccia il bottone RINGRAZIA per visualizzare i link **


    Password: W9uf3209bh0Ped970N
  2. 14 utenti hanno ringraziato PirateMKV per ci che ha scritto.

    4K. (3 Settimane Fa), aderbale70 (16.09.2016), alexmaverick (04.05.2016), bourasse (11.05.2016), Cclaudi0 (04.05.2016), elgringo (09.05.2016), HypnotizeTore (08.09.2016), jonnyrock (26.05.2016), Menarello (15.10.2016), mioz (05.05.2016), mora1269 (28.06.2016), pvk (25.05.2016), rulkks (2 Settimane Fa), sbirisbiri (08.01.2017)

Permessi di Scrittura

  • Tu non puoi inviare nuove discussioni
  • Tu non puoi inviare risposte
  • Tu non puoi inviare allegati
  • Tu non puoi modificare i tuoi messaggi
  •