HomePage - Come attivare il proprio account - Regole del Forum

HOT NEWS!!!

I cannoni di Navarone (1961) BDRip 1080p HEVC ITA ENG AC3 ITA ENG Sub PirateMKV

Doctor Strange (2016)


Il neurochirurgo Stephen Strange vede la sua vita cambiare per sempre dopo che un terribile incidente automobilistico lo priva delluso delle mani. Quando la medicina tradizionale si dimostra incapace di guarirlo, Strange costretto cercare una cura in un luogo inaspettato: una misteriosa enclave nota come Kamar-Taj.


1080p
720p
UNTOUCHED-1080p
BLURAY FULL
BLURAY FULL 3D
I cannoni di Navarone (1961) BDRip 1080p HEVC ITA ENG AC3 ITA ENG Sub PirateMKV
Risultati da 1 a 1 di 1
  1. #1
    Status
    Offline
    L'avatar di PirateMKV
    Data Registrazione

    08.04.2015

    Messaggi

    2,663

    Ha ringraziato
    80 volte
    Ha Ricevuto 12,020 ringraziamenti in 2,345 discussioni volte
    Taggato
    0 Post(s)

    I cannoni di Navarone (1961) BDRip 1080p HEVC ITA ENG AC3 ITA ENG Sub PirateMKV






    Titolo: The Guns of Navarone
    Nazione: UK, USA
    Anno: 1961
    Genere: Action, Adventure, Drama
    Durata: 158 min
    Regia: J. Lee Thompson
    Cast: Gregory Peck, David Niven, Anthony Quinn, Stanley Baker


    Durante la seconda Guerra Mondiale, la piccola isola di Keros, nelle acque della Grecia, presidiata da duemila soldati inglesi. I tedeschi decidono di attaccarla. Gli alleati vogliono inviare navi di rinforzo ma un compito arduo, perch la flotta deve passare davanti all'isola di Navarone, controllata da due micidiali cannoni nazisti.

    Nome Versione: PirateMKV
    Fonte Video: BluRay
    Fonte Audio: BluRay



     






     

    General
    Unique ID : 237349460452093804747792751432500367721 (0xB28FD7E39D859201B415081D05A9D169)
    Complete name : C:\Users\Administrator\Downloads\Navarone\I cannoni di Navarone (1961) BDRip 1080p HEVC ITA ENG AC3 ITA ENG Sub PirateMKV.mkv
    Format : Matroska
    Format version : Version 4 / Version 2
    File size : 5.28 GiB
    Duration : 2h 40mn
    Overall bit rate : 4 699 Kbps
    Movie name : I cannoni di Navarone (1961) - PirateMKV
    Encoded date : UTC 2016-03-14 19:44:09
    Writing application : mkvmerge v8.9.0 ('Father Daughter') 64bit
    Writing library : libebml v1.3.3 libmatroska v1.4.4 / Lavf57.28.100

    Video
    ID : 1
    Format : HEVC
    Format/Info : High Efficiency Video Coding
    Format profile : Main@L4@Main
    Codec ID : V_MPEGH/ISO/HEVC
    Duration : 2h 40mn
    Bit rate : 3 608 Kbps
    Width : 1 920 pixels
    Height : 816 pixels
    Display aspect ratio : 2.35:1
    Frame rate mode : Constant
    Frame rate : 23.976 (24000/1001) fps
    Color space : YUV
    Chroma subsampling : 4:2:0
    Bit depth : 8 bits
    Bits/(Pixel*Frame) : 0.096
    Stream size : 4.05 GiB (77%)
    Writing library : x265 1.9:[Windows][GCC 5.2.0][64 bit] 8bit
    Encoding settings : wpp / ctu=64 / min-cu-size=8 / max-tu-size=32 / tu-intra-depth=3 / tu-inter-depth=3 / me=2 / subme=4 / merange=57 / no-rect / no-amp / max-merge=3 / temporal-mvp / no-early-skip / rdpenalty=0 / no-tskip / no-tskip-fast / strong-intra-smoothing / no-lossless / no-cu-lossless / no-constrained-intra / fast-intra / open-gop / no-temporal-layers / interlace=0 / keyint=250 / min-keyint=23 / scenecut=40 / rc-lookahead=40 / lookahead-slices=0 / bframes=8 / bframe-bias=0 / b-adapt=2 / ref=5 / limit-refs=1 / limit-modes / weightp / weightb / aq-mode=1 / qg-size=32 / aq-strength=2.00 / cbqpoffs=0 / crqpoffs=0 / rd=4 / psy-rd=1.00 / rdoq-level=0 / psy-rdoq=0.00 / signhide / deblock=-1:-1 / sao / no-sao-non-deblock / b-pyramid / no-cutree / no-intra-refresh / rc=crf / crf=23.5 / qcomp=0.60 / qpmin=0 / qpmax=51 / qpstep=4 / ipratio=1.40 / pbratio=1.30
    Default : Yes
    Forced : No
    Color range : Limited
    Matrix coefficients : BT.709

    Audio #1
    ID : 2
    Format : AC-3
    Format/Info : Audio Coding 3
    Mode extension : CM (complete main)
    Format settings, Endianness : Big
    Codec ID : A_AC3
    Duration : 2h 40mn
    Bit rate mode : Constant
    Bit rate : 448 Kbps
    Channel(s) : 6 channels
    Channel positions : Front: L C R, Side: L R, LFE
    Sampling rate : 48.0 KHz
    Frame rate : 31.250 fps (1536 spf)
    Compression mode : Lossy
    Stream size : 516 MiB (10%)
    Title : AC3 5.1
    Language : Italian
    Default : Yes
    Forced : No

    Audio #2
    ID : 3
    Format : AC-3
    Format/Info : Audio Coding 3
    Mode extension : CM (complete main)
    Format settings, Endianness : Big
    Codec ID : A_AC3
    Duration : 2h 40mn
    Bit rate mode : Constant
    Bit rate : 640 Kbps
    Channel(s) : 6 channels
    Channel positions : Front: L C R, Side: L R, LFE
    Sampling rate : 48.0 KHz
    Frame rate : 31.250 fps (1536 spf)
    Compression mode : Lossy
    Stream size : 736 MiB (14%)
    Title : AC3 5.1
    Language : English
    Default : No
    Forced : No

    Text #1
    ID : 4
    Format : UTF-8
    Codec ID : S_TEXT/UTF8
    Codec ID/Info : UTF-8 Plain Text
    Duration : 2h 13mn
    Bit rate : 0 bps
    Count of elements : 29
    Stream size : 823 Bytes (0%)
    Title : Forced
    Language : Italian
    Default : Yes
    Forced : Yes

    Text #2
    ID : 5
    Format : UTF-8
    Codec ID : S_TEXT/UTF8
    Codec ID/Info : UTF-8 Plain Text
    Duration : 2h 39mn
    Bit rate : 32 bps
    Count of elements : 1082
    Stream size : 37.7 KiB (0%)
    Title : Normal
    Language : Italian
    Default : No
    Forced : No

    Text #3
    ID : 6
    Format : UTF-8
    Codec ID : S_TEXT/UTF8
    Codec ID/Info : UTF-8 Plain Text
    Duration : 2h 38mn
    Bit rate : 32 bps
    Count of elements : 1057
    Stream size : 37.8 KiB (0%)
    Title : Normal
    Language : English
    Default : No
    Forced : No

    Text #4
    ID : 7
    Format : UTF-8
    Codec ID : S_TEXT/UTF8
    Codec ID/Info : UTF-8 Plain Text
    Duration : 2h 39mn
    Bit rate : 37 bps
    Count of elements : 1170
    Stream size : 43.4 KiB (0%)
    Title : SDH
    Language : English
    Default : No
    Forced : No

    Menu
    00:00:00.000 : en:00:00:00.000
    00:12:57.610 : en:00:12:57.610
    00:17:57.076 : en:00:17:57.076
    00:24:11.408 : en:00:24:11.408
    00:32:43.920 : en:00:32:43.920
    00:46:16.857 : en:00:46:16.857
    00:59:17.262 : en:00:59:17.262
    01:05:08.863 : en:01:05:08.863
    01:13:27.653 : en:01:13:27.653
    01:21:01.482 : en:01:21:01.482
    01:34:18.236 : en:01:34:18.236
    01:43:04.011 : en:01:43:04.011
    01:56:27.898 : en:01:56:27.898
    02:13:12.985 : en:02:13:12.985
    02:22:04.766 : en:02:22:04.766
    02:32:32.977 : en:02:32:32.977






    ** Contenuto Nascosto: Schiaccia il bottone RINGRAZIA per visualizzare i link **


    Password: W9uf3209bh0Ped970N
  2. 2 utenti hanno ringraziato PirateMKV per ci che ha scritto.

    4K. (3 Giorni Fa), sanchez (24.05.2016)

Permessi di Scrittura

  • Tu non puoi inviare nuove discussioni
  • Tu non puoi inviare risposte
  • Tu non puoi inviare allegati
  • Tu non puoi modificare i tuoi messaggi
  •