HomePage - Come attivare il proprio account - Regole del Forum

HOT NEWS!!!

I racconti di Terramare (2006) BDRip 720p HEVC ITA JAP AC3 ITA ENG Sub PirateMKV

Rogue one-a Star Wars story (2016)


Rogue One A Star Wars Story il primo capitolo di una nuova avventurosa serie cinematografica che esplora i personaggi e gli eventi che ruotano intorno alla saga di Guerre Stellari.


1080p
720p
UNTOUCHED-1080p
BLURAY FULL
BLURAY FULL 3D
I racconti di Terramare (2006) BDRip 720p HEVC ITA JAP AC3 ITA ENG Sub PirateMKV


Avviso a tutti i lettori di mondowarezz.Le sezioni Ebook,Quotidiani e Riviste.Sono momentaneamente chiuse.Vi preghiamo di non intasare la chatbox con le stesse domande.Grazie
Risultati da 1 a 1 di 1
  1. #1
    Status
    Offline
    L'avatar di PirateMKV
    Data Registrazione

    08.04.2015

    Messaggi

    2,781

    Ha ringraziato
    85 volte
    Ha Ricevuto 14,610 ringraziamenti in 2,512 discussioni volte
    Taggato
    1 Post(s)

    I racconti di Terramare (2006) BDRip 720p HEVC ITA JAP AC3 ITA ENG Sub PirateMKV






    Titolo: Tales from Earthsea
    Nazione: Japan
    Anno: 2006
    Genere: Animation, Adventure, Fantasy
    Durata: 115 min
    Regia: Gor Miyazaki
    Cast: Jun'ichi Okada, Aoi Teshima, Bunta Sugawara, Yko Tanaka


    Il mondo di Terramare sta perdendo il suo equilibrio. Il grande mago Ged intraprende un viaggio per cercare la causa della rovina che lo porter ad incontrare il giovane principe Arren e una ragazza misteriosa di nome Therru che lo aiuteranno a combattere contro il male. Un'epica battaglia sta per avere inizio...

    Nome Versione: PirateMKV
    Fonte Video: BluRay
    Fonte Audio: BluRay



     






     

    General
    Unique ID : 251404521426852274718257498205438306013 (0xBD22BFE597506F8EBF277952CF2B66DD)
    Complete name : C:\Users\Administrator\Downloads\********************nimetofix\I Racconti di Terramare\I racconti di Terramare (2006) BDRip 720p HEVC ITA JAP AC3 ITA ENG Sub PirateMKV.mkv
    Format : Matroska
    Format version : Version 4 / Version 2
    File size : 1.93 GiB
    Duration : 1h 55mn
    Overall bit rate : 2 392 Kbps
    Movie name : I racconti di Terramare (2006) - PirateMKV
    Encoded date : UTC 2016-05-11 08:58:18
    Writing application : mkvmerge v9.1.0 ('Little Earthquakes') 64bit
    Writing library : libebml v1.3.3 libmatroska v1.4.4 / Lavf57.36.100

    Video
    ID : 1
    Format : HEVC
    Format/Info : High Efficiency Video Coding
    Format profile : [email protected]@Main
    Codec ID : V_MPEGH/ISO/HEVC
    Duration : 1h 55mn
    Bit rate : 1 494 Kbps
    Width : 1 280 pixels
    Height : 692 pixels
    Display aspect ratio : 1.85:1
    Frame rate mode : Constant
    Frame rate : 23.976 (24000/1001) fps
    Color space : YUV
    Chroma subsampling : 4:2:0
    Bit depth : 8 bits
    Bits/(Pixel*Frame) : 0.070
    Stream size : 1.21 GiB (62%)
    Writing library : x265 1.9:[Windows][GCC 5.2.0][64 bit] 8bit
    Encoding settings : wpp / ctu=64 / min-cu-size=8 / max-tu-size=32 / tu-intra-depth=3 / tu-inter-depth=3 / me=2 / subme=4 / merange=57 / no-rect / no-amp / max-merge=3 / temporal-mvp / no-early-skip / rdpenalty=0 / no-tskip / no-tskip-fast / strong-intra-smoothing / no-lossless / no-cu-lossless / no-constrained-intra / fast-intra / open-gop / no-temporal-layers / interlace=0 / keyint=250 / min-keyint=23 / scenecut=40 / rc-lookahead=40 / lookahead-slices=0 / bframes=8 / bframe-bias=0 / b-adapt=2 / ref=5 / limit-refs=1 / limit-modes / weightp / weightb / aq-mode=1 / qg-size=32 / aq-strength=2.00 / cbqpoffs=0 / crqpoffs=0 / rd=4 / psy-rd=1.00 / rdoq-level=0 / psy-rdoq=0.00 / signhide / deblock=-1:-1 / sao / no-sao-non-deblock / b-pyramid / no-cutree / no-intra-refresh / rc=crf / crf=21.0 / qcomp=0.60 / qpmin=0 / qpmax=51 / qpstep=4 / vbv-maxrate=12000 / vbv-bufsize=12000 / crf-max=0.0 / ipratio=1.40 / pbratio=1.30
    Language : English
    Default : Yes
    Forced : No
    Color range : Limited
    Matrix coefficients : BT.709

    Audio #1
    ID : 2
    Format : AC-3
    Format/Info : Audio Coding 3
    Mode extension : CM (complete main)
    Format settings, Endianness : Big
    Codec ID : A_AC3
    Duration : 1h 55mn
    Bit rate mode : Constant
    Bit rate : 448 Kbps
    Channel(s) : 6 channels
    Channel positions : Front: L C R, Side: L R, LFE
    Sampling rate : 48.0 KHz
    Frame rate : 31.250 fps (1536 spf)
    Compression mode : Lossy
    Stream size : 370 MiB (19%)
    Title : AC3 5.1
    Language : Italian
    Default : Yes
    Forced : No

    Audio #2
    ID : 3
    Format : AC-3
    Format/Info : Audio Coding 3
    Mode extension : CM (complete main)
    Format settings, Endianness : Big
    Codec ID : A_AC3
    Duration : 1h 55mn
    Bit rate mode : Constant
    Bit rate : 448 Kbps
    Channel(s) : 2 channels
    Channel positions : Front: L R
    Sampling rate : 48.0 KHz
    Frame rate : 31.250 fps (1536 spf)
    Compression mode : Lossy
    Stream size : 370 MiB (19%)
    Title : AC3 2.0
    Language : Japanese
    Default : No
    Forced : No

    Text #1
    ID : 4
    Format : UTF-8
    Codec ID : S_TEXT/UTF8
    Codec ID/Info : UTF-8 Plain Text
    Duration : 1h 50mn
    Bit rate : 42 bps
    Count of elements : 899
    Stream size : 34.5 KiB (0%)
    Title : Normal
    Language : Italian
    Default : No
    Forced : No

    Text #2
    ID : 5
    Format : UTF-8
    Codec ID : S_TEXT/UTF8
    Codec ID/Info : UTF-8 Plain Text
    Duration : 1h 55mn
    Bit rate : 33 bps
    Count of elements : 992
    Stream size : 28.6 KiB (0%)
    Title : Normal
    Language : English
    Default : No
    Forced : No

    Menu
    00:00:00.000 : en:00:00:00.000
    00:06:50.035 : en:00:06:50.035
    00:10:15.031 : en:00:10:15.031
    00:15:42.567 : en:00:15:42.567
    00:20:11.877 : en:00:20:11.877
    00:25:22.771 : en:00:25:22.771
    00:27:57.384 : en:00:27:57.384
    00:31:59.626 : en:00:31:59.626
    00:38:54.082 : en:00:38:54.082
    00:43:36.822 : en:00:43:36.822
    00:46:35.000 : en:00:46:35.000
    00:51:17.533 : en:00:51:17.533
    00:55:24.363 : en:00:55:24.363
    01:04:00.545 : en:01:04:00.545
    01:10:13.125 : en:01:10:13.125
    01:16:05.811 : en:01:16:05.811
    01:19:41.318 : en:01:19:41.318
    01:22:15.681 : en:01:22:15.681
    01:26:06.828 : en:01:26:06.828
    01:29:37.372 : en:01:29:37.372
    01:35:41.861 : en:01:35:41.861
    01:40:59.387 : en:01:40:59.387
    01:44:21.547 : en:01:44:21.547
    01:49:08.834 : en:01:49:08.834






    ** Contenuto Nascosto: Schiaccia il bottone RINGRAZIA per visualizzare i link **


    Password: W9uf3209bh0Ped970N
  2. The Following User Says Thank You to PirateMKV For This Useful Post:

    Modigliani (19.06.2016)

Permessi di Scrittura

  • Tu non puoi inviare nuove discussioni
  • Tu non puoi inviare risposte
  • Tu non puoi inviare allegati
  • Tu non puoi modificare i tuoi messaggi
  •