HomePage - Come attivare il proprio account - Regole del Forum

HOT NEWS!!!

I sospiri del mio cuore (1995) BDRip 720p HEVC ITA JAP AC3 ITA Sub PirateMKV

Passengers (2016)


Durante un viaggio verso una nuova casa su un altro pianeta, due passeggeri vengono svegliati 90 anni prima del previsto per un guasto della nave spaziale.


1080p
720p
UNTOUCHED-1080p
BLURAY FULL
BLURAY FULL 3D
I sospiri del mio cuore (1995) BDRip 720p HEVC ITA JAP AC3 ITA Sub PirateMKV


Avviso a tutti i lettori di mondowarezz.Le sezioni Ebook,Quotidiani e Riviste.Sono momentaneamente chiuse.Vi preghiamo di non intasare la chatbox con le stesse domande.Grazie
Risultati da 1 a 1 di 1
  1. #1
    Status
    Offline
    L'avatar di PirateMKV
    Data Registrazione

    08.04.2015

    Messaggi

    2,781

    Ha ringraziato
    85 volte
    Ha Ricevuto 14,303 ringraziamenti in 2,505 discussioni volte
    Taggato
    1 Post(s)

    I sospiri del mio cuore (1995) BDRip 720p HEVC ITA JAP AC3 ITA Sub PirateMKV






    Titolo: Whisper of the Heart
    Nazione: Japan
    Anno: 1995
    Genere: Animation, Drama, Family
    Durata: 111 min
    Regia: Yoshifumi Kond
    Cast: Youko Honna, Issei Takahashi, Takashi Tachibana, Shigeru Muroi


    La piccola Shizuku si diletta in poesie e traduzioni dall'inglese, frequentando assiduamente la biblioteca in cui lavora il padre. Incuriosita dal fatto che un tale Amasawa prende in prestito gli stessi libri scelti da lei, Shizuku arriva a conoscere il ragazzo, grazie all'aiuto di uno strano gatto incontrato in metropolitana.

    Nome Versione: PirateMKV
    Fonte Video: BluRay
    Fonte Audio: BluRay



     






     

    General
    Unique ID : 194051009093797174326071535835005877653 (0x91FCDD6B15A44A5985BD8B03C1547D95)
    Complete name : C:\Users\Administrator\Downloads\********************nime\I.Sospi ri.Del.Mio.Cuore.1995\I sospiri del mio cuore (1995) BDRip 720p HEVC ITA JAP AC3 ITA Sub PirateMKV.mkv
    Format : Matroska
    Format version : Version 4 / Version 2
    File size : 2.79 GiB
    Duration : 1h 50mn
    Overall bit rate : 3 611 Kbps
    Movie name : I sospiri del mio cuore (1995) - PirateMKV
    Encoded date : UTC 2016-05-08 21:31:52
    Writing application : mkvmerge v9.1.0 ('Little Earthquakes') 64bit
    Writing library : libebml v1.3.3 libmatroska v1.4.4 / Lavf57.36.100

    Video
    ID : 1
    Format : HEVC
    Format/Info : High Efficiency Video Coding
    Format profile : [email protected]@Main
    Codec ID : V_MPEGH/ISO/HEVC
    Duration : 1h 50mn
    Bit rate : 2 249 Kbps
    Width : 1 280 pixels
    Height : 692 pixels
    Display aspect ratio : 1.85:1
    Frame rate mode : Constant
    Frame rate : 24.000 fps
    Color space : YUV
    Chroma subsampling : 4:2:0
    Bit depth : 8 bits
    Bits/(Pixel*Frame) : 0.106
    Stream size : 1.74 GiB (62%)
    Writing library : x265 1.9:[Windows][GCC 5.2.0][64 bit] 8bit
    Encoding settings : wpp / ctu=64 / min-cu-size=8 / max-tu-size=32 / tu-intra-depth=3 / tu-inter-depth=3 / me=2 / subme=4 / merange=57 / no-rect / no-amp / max-merge=3 / temporal-mvp / no-early-skip / rdpenalty=0 / no-tskip / no-tskip-fast / strong-intra-smoothing / no-lossless / no-cu-lossless / no-constrained-intra / fast-intra / open-gop / no-temporal-layers / interlace=0 / keyint=250 / min-keyint=24 / scenecut=40 / rc-lookahead=40 / lookahead-slices=0 / bframes=8 / bframe-bias=0 / b-adapt=2 / ref=5 / limit-refs=1 / limit-modes / weightp / weightb / aq-mode=1 / qg-size=32 / aq-strength=2.00 / cbqpoffs=0 / crqpoffs=0 / rd=4 / psy-rd=1.00 / rdoq-level=0 / psy-rdoq=0.00 / signhide / deblock=-1:-1 / sao / no-sao-non-deblock / b-pyramid / no-cutree / no-intra-refresh / rc=crf / crf=20.9 / qcomp=0.60 / qpmin=0 / qpmax=51 / qpstep=4 / vbv-maxrate=12000 / vbv-bufsize=12000 / crf-max=0.0 / ipratio=1.40 / pbratio=1.30
    Language : English
    Default : Yes
    Forced : No
    Color range : Limited
    Matrix coefficients : BT.709

    Audio #1
    ID : 2
    Format : AC-3
    Format/Info : Audio Coding 3
    Mode extension : CM (complete main)
    Format settings, Endianness : Big
    Codec ID : A_AC3
    Duration : 1h 50mn
    Bit rate mode : Constant
    Bit rate : 640 Kbps
    Channel(s) : 6 channels
    Channel positions : Front: L C R, Side: L R, LFE
    Sampling rate : 48.0 KHz
    Frame rate : 31.250 fps (1536 spf)
    Compression mode : Lossy
    Stream size : 507 MiB (18%)
    Title : AC3 5.1
    Language : Italian
    Default : Yes
    Forced : No

    Audio #2
    ID : 3
    Format : AC-3
    Format/Info : Audio Coding 3
    Mode extension : CM (complete main)
    Format settings, Endianness : Big
    Codec ID : A_AC3
    Duration : 1h 50mn
    Bit rate mode : Constant
    Bit rate : 640 Kbps
    Channel(s) : 6 channels
    Channel positions : Front: L C R, Side: L R, LFE
    Sampling rate : 48.0 KHz
    Frame rate : 31.250 fps (1536 spf)
    Compression mode : Lossy
    Stream size : 507 MiB (18%)
    Title : AC3 5.1
    Language : Japanese
    Default : No
    Forced : No

    Text #1
    ID : 4
    Format : PGS
    Codec ID : S_HDMV/PGS
    Codec ID/Info : Picture based subtitle format used on BDs/HD-DVDs
    Duration : 1h 50mn
    Bit rate : 2 919 bps
    Count of elements : 115
    Stream size : 2.31 MiB (0%)
    Title : Forced
    Language : Italian
    Default : Yes
    Forced : Yes

    Text #2
    ID : 5
    Format : PGS
    Codec ID : S_HDMV/PGS
    Codec ID/Info : Picture based subtitle format used on BDs/HD-DVDs
    Duration : 1h 50mn
    Bit rate : 37.4 Kbps
    Count of elements : 2622
    Stream size : 29.5 MiB (1%)
    Title : Normal
    Language : Italian
    Default : No
    Forced : No

    Text #3
    ID : 6
    Format : PGS
    Codec ID : S_HDMV/PGS
    Codec ID/Info : Picture based subtitle format used on BDs/HD-DVDs
    Duration : 1h 50mn
    Bit rate : 39.4 Kbps
    Count of elements : 2685
    Stream size : 31.1 MiB (1%)
    Title : SDH
    Language : Italian
    Default : No
    Forced : No

    Menu
    00:00:00.000 : en:00:00:00.000
    00:08:05.833 : en:00:08:05.833
    00:18:28.208 : en:00:18:28.208
    00:28:56.625 : en:00:28:56.625
    00:37:09.417 : en:00:37:09.417
    00:46:52.417 : en:00:46:52.417
    00:58:47.625 : en:00:58:47.625
    01:08:26.000 : en:01:08:26.000
    01:17:09.417 : en:01:17:09.417
    01:30:00.417 : en:01:30:00.417
    01:39:08.625 : en:01:39:08.625
    01:46:49.625 : en:01:46:49.625






    ** Contenuto Nascosto: Schiaccia il bottone RINGRAZIA per visualizzare i link **


    Password: W9uf3209bh0Ped970N
  2. The Following User Says Thank You to PirateMKV For This Useful Post:

    Modigliani (19.06.2016)

Permessi di Scrittura

  • Tu non puoi inviare nuove discussioni
  • Tu non puoi inviare risposte
  • Tu non puoi inviare allegati
  • Tu non puoi modificare i tuoi messaggi
  •