HomePage - Come attivare il proprio account - Regole del Forum

HOT NEWS!!!

Il castello errante di Howl (2004) BDRip 1080p HEVC ITA JAP AC3 ITA Sub PirateMKV

Passengers (2016)


Durante un viaggio verso una nuova casa su un altro pianeta, due passeggeri vengono svegliati 90 anni prima del previsto per un guasto della nave spaziale.


1080p
720p
UNTOUCHED-1080p
BLURAY FULL
BLURAY FULL 3D
Il castello errante di Howl (2004) BDRip 1080p HEVC ITA JAP AC3 ITA Sub PirateMKV


Avviso a tutti i lettori di mondowarezz.Le sezioni Ebook,Quotidiani e Riviste.Sono momentaneamente chiuse.Vi preghiamo di non intasare la chatbox con le stesse domande.Grazie
Risultati da 1 a 1 di 1
  1. #1
    Status
    Offline
    L'avatar di PirateMKV
    Data Registrazione

    08.04.2015

    Messaggi

    2,781

    Ha ringraziato
    85 volte
    Ha Ricevuto 14,270 ringraziamenti in 2,503 discussioni volte
    Taggato
    1 Post(s)

    Il castello errante di Howl (2004) BDRip 1080p HEVC ITA JAP AC3 ITA Sub PirateMKV






    Titolo: Howl's Moving Castle
    Nazione: Japan
    Anno: 2004
    Genere: Animation, Adventure, Family
    Durata: 119 min
    Regia: Hayao Miyazaki
    Cast: Chieko Baishô, Takuya Kimura, Akihiro Miwa, Tatsuya Gashûin


    La giovane Sophie, 18 anni, lavora senza posa nella boutique di cappelli che, prima di morire, apparteneva a suo padre. Durante una delle sue rare uscite in città, conosce Howl il Mago. Howl è molto affascinante, ma non ha molto carattere...Fraintendendo la loro relazione, una strega lancia un maleficio terribile su Sophie e la trasforma in una vecchia di 90 anni. Prostrata, Sophie fugge e vaga nelle terre desolate. Per puro caso, entra nel Castello Errante di Howl e, nascondendo la sua vera identità, si fa assumere come donna delle pulizie

    Nome Versione: PirateMKV
    Fonte Video: BluRay
    Fonte Audio: BluRay



     






     

    General
    Unique ID : 172302296946271105641915530142330123841 (0x81A0371F0D1633F3BE9687D382C3F641)
    Complete name : C:\Users\Administrator\Downloads\********************nime\Il castello errante di Howl (2004) BDRip 1080p HEVC ITA JAP AC3 ITA Sub PirateMKV.mkv
    Format : Matroska
    Format version : Version 4 / Version 2
    File size : 4.08 GiB
    Duration : 1h 59mn
    Overall bit rate : 4 907 Kbps
    Movie name : Il castello errante di Howl (2004) - PirateMKV
    Encoded date : UTC 2016-05-12 08:59:12
    Writing application : mkvmerge v9.1.0 ('Little Earthquakes') 64bit
    Writing library : libebml v1.3.3 libmatroska v1.4.4 / Lavf57.36.100

    Video
    ID : 1
    Format : HEVC
    Format/Info : High Efficiency Video Coding
    Format profile : [email protected]@Main
    Codec ID : V_MPEGH/ISO/HEVC
    Duration : 1h 59mn
    Bit rate : 4 009 Kbps
    Width : 1 920 pixels
    Height : 1 038 pixels
    Display aspect ratio : 1.85:1
    Frame rate mode : Constant
    Frame rate : 23.976 (24000/1001) fps
    Color space : YUV
    Chroma subsampling : 4:2:0
    Bit depth : 8 bits
    Bits/(Pixel*Frame) : 0.084
    Stream size : 3.34 GiB (82%)
    Writing library : x265 1.9:[Windows][GCC 5.2.0][64 bit] 8bit
    Encoding settings : wpp / ctu=64 / min-cu-size=8 / max-tu-size=32 / tu-intra-depth=3 / tu-inter-depth=3 / me=2 / subme=4 / merange=57 / no-rect / no-amp / max-merge=3 / temporal-mvp / no-early-skip / rdpenalty=0 / no-tskip / no-tskip-fast / strong-intra-smoothing / no-lossless / no-cu-lossless / no-constrained-intra / fast-intra / open-gop / no-temporal-layers / interlace=0 / keyint=250 / min-keyint=23 / scenecut=40 / rc-lookahead=40 / lookahead-slices=0 / bframes=8 / bframe-bias=0 / b-adapt=2 / ref=4 / limit-refs=3 / limit-modes / weightp / weightb / aq-mode=1 / qg-size=32 / aq-strength=2.00 / cbqpoffs=0 / crqpoffs=0 / rd=4 / psy-rd=1.00 / rdoq-level=0 / psy-rdoq=0.00 / signhide / deblock=-1:-1 / sao / no-sao-non-deblock / b-pyramid / no-cutree / no-intra-refresh / rc=crf / crf=21.5 / qcomp=0.60 / qpmin=0 / qpmax=51 / qpstep=4 / vbv-maxrate=12000 / vbv-bufsize=12000 / crf-max=0.0 / ipratio=1.40 / pbratio=1.30
    Language : English
    Default : Yes
    Forced : No
    Color range : Limited
    Matrix coefficients : BT.709

    Audio #1
    ID : 2
    Format : AC-3
    Format/Info : Audio Coding 3
    Mode extension : CM (complete main)
    Format settings, Endianness : Big
    Codec ID : A_AC3
    Duration : 1h 59mn
    Bit rate mode : Constant
    Bit rate : 448 Kbps
    Channel(s) : 6 channels
    Channel positions : Front: L C R, Side: L R, LFE
    Sampling rate : 48.0 KHz
    Frame rate : 31.250 fps (1536 spf)
    Compression mode : Lossy
    Stream size : 382 MiB (9%)
    Title : AC3 5.1
    Language : Italian
    Default : Yes
    Forced : No

    Audio #2
    ID : 3
    Format : AC-3
    Format/Info : Audio Coding 3
    Mode extension : CM (complete main)
    Format settings, Endianness : Big
    Codec ID : A_AC3
    Duration : 1h 59mn
    Bit rate mode : Constant
    Bit rate : 448 Kbps
    Channel(s) : 2 channels
    Channel positions : Front: L R
    Sampling rate : 48.0 KHz
    Frame rate : 31.250 fps (1536 spf)
    Compression mode : Lossy
    Stream size : 382 MiB (9%)
    Title : AC3 2.0
    Language : Japanese
    Default : No
    Forced : No

    Text
    ID : 4
    Format : UTF-8
    Codec ID : S_TEXT/UTF8
    Codec ID/Info : UTF-8 Plain Text
    Duration : 1h 58mn
    Bit rate : 36 bps
    Count of elements : 1130
    Stream size : 31.9 KiB (0%)
    Title : Normal
    Language : Italian
    Default : No
    Forced : No

    Menu
    00:00:00.000 : en:00:00:00.000
    00:01:04.273 : en:00:01:04.273
    00:04:58.632 : en:00:04:58.632
    00:12:22.825 : en:00:12:22.825
    00:18:23.269 : en:00:18:23.269
    00:23:16.770 : en:00:23:16.770
    00:28:51.939 : en:00:28:51.939
    00:33:13.783 : en:00:33:13.783
    00:40:10.241 : en:00:40:10.241
    00:45:30.394 : en:00:45:30.394
    00:49:15.870 : en:00:49:15.870
    00:55:26.365 : en:00:55:26.365
    00:58:32.509 : en:00:58:32.509
    01:04:51.221 : en:01:04:51.221
    01:10:53.708 : en:01:10:53.708
    01:15:24.353 : en:01:15:24.353
    01:20:25.487 : en:01:20:25.487
    01:25:19.489 : en:01:25:19.489
    01:32:30.879 : en:01:32:30.879
    01:38:35.576 : en:01:38:35.576
    01:44:22.423 : en:01:44:22.423
    01:48:20.786 : en:01:48:20.786
    01:52:19.483 : en:01:52:19.483
    01:54:39.039 : en:01:54:39.039






    ** Contenuto Nascosto: Schiaccia il bottone RINGRAZIA per visualizzare i link **


    Password: W9uf3209bh0Ped970N
  2. 3 utenti hanno ringraziato PirateMKV per ciò che ha scritto.

    bikers (21.01.2017), Menarello (16.10.2016), mimmo18 (24.10.2016)

Permessi di Scrittura

  • Tu non puoi inviare nuove discussioni
  • Tu non puoi inviare risposte
  • Tu non puoi inviare allegati
  • Tu non puoi modificare i tuoi messaggi
  •