HomePage - Come attivare il proprio account - Regole del Forum

HOT NEWS!!!

Il castello nel cielo (1986) BDRip 1080p HEVC ITA JAP AC3 ITA Sub PirateMKV

Rogue one-a Star Wars story (2016)


Rogue One A Star Wars Story il primo capitolo di una nuova avventurosa serie cinematografica che esplora i personaggi e gli eventi che ruotano intorno alla saga di Guerre Stellari.


1080p
720p
UNTOUCHED-1080p
BLURAY FULL
BLURAY FULL 3D
Il castello nel cielo (1986) BDRip 1080p HEVC ITA JAP AC3 ITA Sub PirateMKV


Avviso a tutti i lettori di mondowarezz.Le sezioni Ebook,Quotidiani e Riviste.Sono momentaneamente chiuse.Vi preghiamo di non intasare la chatbox con le stesse domande.Grazie
Risultati da 1 a 3 di 3
  1. #1
    Status
    Offline
    L'avatar di PirateMKV
    Data Registrazione

    08.04.2015

    Messaggi

    2,781

    Ha ringraziato
    85 volte
    Ha Ricevuto 14,610 ringraziamenti in 2,512 discussioni volte
    Taggato
    1 Post(s)

    Il castello nel cielo (1986) BDRip 1080p HEVC ITA JAP AC3 ITA Sub PirateMKV






    Titolo: Castle in the Sky
    Nazione: Japan
    Anno: 1986
    Genere: Animation, Adventure, Family
    Durata: 125 min
    Regia: Hayao Miyazaki
    Cast: Anna Paquin, James Van Der Beek, Cloris Leachman, Mark Hamill


    Per sfuggire ai pirati dell'aria la giovane Sheeta cade da un aereo, ma si salva levitando nell'aria e atterrando dolcemente tra le braccia di Pazu, un giovane minatore che decide di prendersi cura di lei. Mentre si susseguono i tentativi di catturare Sheeta e la misteriosa pietra che la ragazza porta al collo, cresce la consapevolezza che Sheeta nasconda dei segreti che vanno ben oltre quel che l'apparenza sembri indicare, legati a una misteriosa citt nel cielo, Laputa, di cui si favoleggia l'esistenza.

    Nome Versione: PirateMKV
    Fonte Video: BluRay
    Fonte Audio: BluRay



     






     

    General
    Unique ID : 231109487123295094002382085733074722673 (0xADDE117379D74C30B199536BF631DF71)
    Complete name : E:\Downloads\[BDMV]Laputa_Castle_in_the_Sky\Il castello nel cielo (1986) BDRip 1080p HEVC ITA JAP AC3 ITA Sub PirateMKV.mkv
    Format : Matroska
    Format version : Version 4 / Version 2
    File size : 5.86 GiB
    Duration : 2h 4mn
    Overall bit rate : 6 732 Kbps
    Movie name : Il castello nel cielo (1986) - PirateMKV
    Encoded date : UTC 2016-05-08 18:49:33
    Writing application : mkvmerge v9.1.0 ('Little Earthquakes') 64bit
    Writing library : libebml v1.3.3 libmatroska v1.4.4 / Lavf57.34.103

    Video
    ID : 1
    Format : HEVC
    Format/Info : High Efficiency Video Coding
    Format profile : [email protected]@Main
    Codec ID : V_MPEGH/ISO/HEVC
    Duration : 2h 4mn
    Bit rate : 5 834 Kbps
    Width : 1 920 pixels
    Height : 1 036 pixels
    Display aspect ratio : 1.85:1
    Frame rate mode : Constant
    Frame rate : 23.976 (24000/1001) fps
    Color space : YUV
    Chroma subsampling : 4:2:0
    Bit depth : 8 bits
    Bits/(Pixel*Frame) : 0.122
    Stream size : 5.08 GiB (87%)
    Writing library : x265 1.9:[Windows][GCC 5.2.0][64 bit] 8bit
    Encoding settings : wpp / ctu=64 / min-cu-size=8 / max-tu-size=32 / tu-intra-depth=3 / tu-inter-depth=3 / me=2 / subme=4 / merange=57 / no-rect / no-amp / max-merge=3 / temporal-mvp / no-early-skip / rdpenalty=0 / no-tskip / no-tskip-fast / strong-intra-smoothing / no-lossless / no-cu-lossless / no-constrained-intra / fast-intra / open-gop / no-temporal-layers / interlace=0 / keyint=250 / min-keyint=23 / scenecut=40 / rc-lookahead=40 / lookahead-slices=0 / bframes=8 / bframe-bias=0 / b-adapt=2 / ref=4 / limit-refs=1 / limit-modes / weightp / weightb / aq-mode=1 / qg-size=32 / aq-strength=2.00 / cbqpoffs=0 / crqpoffs=0 / rd=4 / psy-rd=1.00 / rdoq-level=0 / psy-rdoq=0.00 / signhide / deblock=-1:-1 / sao / no-sao-non-deblock / b-pyramid / no-cutree / no-intra-refresh / rc=crf / crf=23.0 / qcomp=0.60 / qpmin=0 / qpmax=51 / qpstep=4 / vbv-maxrate=12000 / vbv-bufsize=12000 / crf-max=0.0 / ipratio=1.40 / pbratio=1.30
    Default : Yes
    Forced : No
    Color range : Limited
    Matrix coefficients : BT.709

    Audio #1
    ID : 2
    Format : AC-3
    Format/Info : Audio Coding 3
    Mode extension : CM (complete main)
    Format settings, Endianness : Big
    Codec ID : A_AC3
    Duration : 2h 4mn
    Bit rate mode : Constant
    Bit rate : 448 Kbps
    Channel(s) : 2 channels
    Channel positions : Front: L R
    Sampling rate : 48.0 KHz
    Frame rate : 31.250 fps (1536 spf)
    Compression mode : Lossy
    Stream size : 399 MiB (7%)
    Title : AC3 2.0
    Language : Italian
    Default : Yes
    Forced : No

    Audio #2
    ID : 3
    Format : AC-3
    Format/Info : Audio Coding 3
    Mode extension : CM (complete main)
    Format settings, Endianness : Big
    Codec ID : A_AC3
    Duration : 2h 4mn
    Bit rate mode : Constant
    Bit rate : 448 Kbps
    Channel(s) : 2 channels
    Channel positions : Front: L R
    Sampling rate : 48.0 KHz
    Frame rate : 31.250 fps (1536 spf)
    Compression mode : Lossy
    Stream size : 399 MiB (7%)
    Title : AC3 2.0
    Language : Japanese
    Default : No
    Forced : No

    Text #1
    ID : 4
    Format : UTF-8
    Codec ID : S_TEXT/UTF8
    Codec ID/Info : UTF-8 Plain Text
    Duration : 1h 15mn
    Bit rate : 1 bps
    Count of elements : 19
    Stream size : 1.07 KiB (0%)
    Title : Forced
    Language : Italian
    Default : Yes
    Forced : Yes

    Text #2
    ID : 5
    Format : UTF-8
    Codec ID : S_TEXT/UTF8
    Codec ID/Info : UTF-8 Plain Text
    Duration : 2h 2mn
    Bit rate : 45 bps
    Count of elements : 1156
    Stream size : 40.7 KiB (0%)
    Title : Normal
    Language : Italian
    Default : No
    Forced : No

    Text #3
    ID : 6
    Format : UTF-8
    Codec ID : S_TEXT/UTF8
    Codec ID/Info : UTF-8 Plain Text
    Duration : 2h 3mn
    Bit rate : 50 bps
    Count of elements : 1255
    Stream size : 45.4 KiB (0%)
    Title : SDH
    Language : Italian
    Default : No
    Forced : No

    Menu
    00:00:00.000 : it:Una pietra speciale
    00:03:52.357 : it:Titoli di testa
    00:10:45.960 : it:La leggenda del castello nel cielo
    00:17:59.880 : it:Attenzione ai pirati
    00:28:08.160 : it:Persi nella miniera
    00:36:18.960 : it:Catturati
    00:43:42.720 : it:Promessa spezzata
    00:51:21.360 : it:Il salvataggio
    01:03:13.320 : it:Un viaggio avventuroso
    01:16:51.360 : it:Qualcosa non va bene
    01:25:50.200 : it:Un posto stupefacente
    01:34:32.320 : it:L'invasione
    01:52:15.400 : it:Riscatto
    02:01:16.360 : it:Titoli di coda






    ** Contenuto Nascosto: Schiaccia il bottone RINGRAZIA per visualizzare i link **


    Password: W9uf3209bh0Ped970N
    Ultima modifica di PirateMKV; 09.05.2016 alle 17:55
  2. 5 utenti hanno ringraziato PirateMKV per ci che ha scritto.

    danyandgeri (2 Settimane Fa), fedeyo (14.08.2016), lische (11.05.2016), Menarello (16.10.2016), PirateMKV (08.05.2016)

  3. #2
    Status
    Offline
    L'avatar di lische
    Data Registrazione

    10.03.2014

    Messaggi

    18

    Ha ringraziato
    150 volte
    Ha Ricevuto 5 ringraziamenti in 3 discussioni volte
    Taggato
    0 Post(s)
    keeplinks richiede una password
  4. The Following User Says Thank You to lische For This Useful Post:

    lische (12.05.2016)

  5. #3
    Status
    Offline
    L'avatar di PirateMKV
    Data Registrazione

    08.04.2015

    Messaggi

    2,781

    Ha ringraziato
    85 volte
    Ha Ricevuto 14,610 ringraziamenti in 2,512 discussioni volte
    Taggato
    1 Post(s)
    inserita password
    SEVERAMENTE VIETATO REUPPARE LE MIE RELEASE SENZA IL MIO CONSENSO

    Se non avete l'elenco online delle password Keeplinks dei miei film, potete riceverlo via pm. L'elenco aggiornato costantemente quindi baster richiederlo solo una volta.
  6. The Following User Says Thank You to PirateMKV For This Useful Post:

    lische (12.05.2016)

Permessi di Scrittura

  • Tu non puoi inviare nuove discussioni
  • Tu non puoi inviare risposte
  • Tu non puoi inviare allegati
  • Tu non puoi modificare i tuoi messaggi
  •