HomePage - Come attivare il proprio account - Regole del Forum

HOT NEWS!!!

Il mio vicino Totoro (1988) BDRip 1080p HEVC ITA JAP AC3 ITA Sub PirateMKV

Rogue one-a Star Wars story (2016)


Rogue One A Star Wars Story è il primo capitolo di una nuova avventurosa serie cinematografica che esplora i personaggi e gli eventi che ruotano intorno alla saga di Guerre Stellari.


1080p
720p
UNTOUCHED-1080p
BLURAY FULL
BLURAY FULL 3D
Il mio vicino Totoro (1988) BDRip 1080p HEVC ITA JAP AC3 ITA Sub PirateMKV


Avviso a tutti i lettori di mondowarezz.Le sezioni Ebook,Quotidiani e Riviste.Sono momentaneamente chiuse.Vi preghiamo di non intasare la chatbox con le stesse domande.Grazie
Risultati da 1 a 1 di 1
  1. #1
    Status
    Offline
    L'avatar di PirateMKV
    Data Registrazione

    08.04.2015

    Messaggi

    2,781

    Ha ringraziato
    85 volte
    Ha Ricevuto 14,698 ringraziamenti in 2,519 discussioni volte
    Taggato
    1 Post(s)

    Il mio vicino Totoro (1988) BDRip 1080p HEVC ITA JAP AC3 ITA Sub PirateMKV






    Titolo: My Neighbor Totoro
    Nazione: Japan
    Anno: 1988
    Genere: Animation, Family, Fantasy
    Durata: 86 min
    Regia: Hayao Miyazaki
    Cast: Chika Sakamoto, Hitoshi Takagi, Noriko Hidaka, Shigesato Itoi


    A volte per vivere un'emozione bisogna aspettare più di vent'anni. Tanti ne sono passati infatti da quando apparve nei cinema giapponesi Il mio vicino Totoro, diretto da Hayao Miyazaki , già regista di culto in patria grazie ai successi di Nausicaa e Laputa. Con Totoro il regista raccontava per la prima volta il mondo a lui più caro, quello dei bambini, in cui il dettaglio più insignificante rappresenta una grande scoperta e un sentiero poco battuto è l'inizio di una grande avventura. La storia, ambientata negli anni '50, racconta l'indimenticabile estate vissuta dalle sorelle Satsuki e Mei (la prima di 11 anni e la seconda di 4) , trasferitesi assieme al padre a Matsu no Gô, un piccolo villaggio di campagna circondato da foreste, campi coltivati, fiumi e molte risaie, lontanissimo dagli stereotipi del Giappone supertecnologico, per stare più vicine alla madre, ricoverata in ospedale per una malattia. La piccola Mei, dopo aver esplorato la casa e i dintorni, s'imbatte in una piccolo e curioso animaletto bianco con due buffe orecchie:seguendo le sue tracce, giunge ad un altissimo albero di canfora al cui interno vive Tororo, lo spirito dei boschi, una enorme creatura pelosa e morbida. Totoro si dimostrerà gentile con le due bambine e permetterà loro di ritrovarsi quando Mei, allontanatasi per portare un regalo alla madre, si perderà nel dedalo di stradine in mezzo al verde. In Totoro l'inventiva e la creatività di Miyazaki sono ai massimi livelli: la "famiglia" di Totoro, le piccole entità fatte di fuliggine, il soffice e sornione Gatto-Bus (che i bambini possono conoscere "dal vivo" al Museo Ghibli in Giappone), l'incredibile intelligenza e poesia di alcune sequenze (l'attesa dell'autobus sotto la pioggia, forse la più emozionante nella sua garbata semplicità) dimostrano il valore assoluto della pellicola. Una fiaba moderna, un film dichiaratamente per bambini ma dal quale, come in tutte le pellicole di Miyazaki del resto, anche gli adulti possono e dovrebbero trarre insegnamento. Qui è racchiusa l'intera poetica miyazakiana: c'è l'amore per l'ambiente, per i bambini, il rimpianto per un passato in cui la società ra più grabata e gentile verso il prossimo. Ciò che stupisce, ma non troppo, del film, è la sua innata freschezza a vent'anni di distanza dal suo esordio nei cinema nipponici. Un'opera indispensabile, graziata, per una volta, da un adattamento italiano encomiabile.

    Nome Versione: PirateMKV
    Fonte Video: BluRay
    Fonte Audio: BluRay



     






     

    General
    Unique ID : 177683422888160733174097084007820189872 (0x85AC951D283B73FAB6EF9CBB1D9660B0)
    Complete name : C:\Users\Administrator\Downloads\********************nime\Totoro\ Il mio vicino Totoro (1988) BDRip 1080p HEVC ITA JAP AC3 ITA Sub PirateMKV.mkv
    Format : Matroska
    Format version : Version 4 / Version 2
    File size : 3.16 GiB
    Duration : 1h 26mn
    Overall bit rate : 5 232 Kbps
    Movie name : Il mio vicino Totoro (1988) - PirateMKV
    Encoded date : UTC 2016-05-10 16:51:51
    Writing application : mkvmerge v9.1.0 ('Little Earthquakes') 64bit
    Writing library : libebml v1.3.3 libmatroska v1.4.4 / Lavf57.36.100

    Video
    ID : 1
    Format : HEVC
    Format/Info : High Efficiency Video Coding
    Format profile : [email protected]@Main
    Codec ID : V_MPEGH/ISO/HEVC
    Duration : 1h 26mn
    Bit rate : 4 589 Kbps
    Width : 1 920 pixels
    Height : 1 038 pixels
    Display aspect ratio : 1.85:1
    Frame rate mode : Constant
    Frame rate : 23.976 (24000/1001) fps
    Color space : YUV
    Chroma subsampling : 4:2:0
    Bit depth : 8 bits
    Bits/(Pixel*Frame) : 0.096
    Stream size : 2.77 GiB (88%)
    Writing library : x265 1.9:[Windows][GCC 5.2.0][64 bit] 8bit
    Encoding settings : wpp / ctu=64 / min-cu-size=8 / max-tu-size=32 / tu-intra-depth=3 / tu-inter-depth=3 / me=2 / subme=4 / merange=57 / no-rect / no-amp / max-merge=3 / temporal-mvp / no-early-skip / rdpenalty=0 / no-tskip / no-tskip-fast / strong-intra-smoothing / no-lossless / no-cu-lossless / no-constrained-intra / fast-intra / open-gop / no-temporal-layers / interlace=0 / keyint=250 / min-keyint=23 / scenecut=40 / rc-lookahead=40 / lookahead-slices=0 / bframes=8 / bframe-bias=0 / b-adapt=2 / ref=4 / limit-refs=1 / limit-modes / weightp / weightb / aq-mode=1 / qg-size=32 / aq-strength=2.00 / cbqpoffs=0 / crqpoffs=0 / rd=4 / psy-rd=1.00 / rdoq-level=0 / psy-rdoq=0.00 / signhide / deblock=-1:-1 / sao / no-sao-non-deblock / b-pyramid / no-cutree / no-intra-refresh / rc=crf / crf=22.7 / qcomp=0.60 / qpmin=0 / qpmax=51 / qpstep=4 / vbv-maxrate=12000 / vbv-bufsize=12000 / crf-max=0.0 / ipratio=1.40 / pbratio=1.30
    Language : English
    Default : Yes
    Forced : No
    Color range : Limited
    Matrix coefficients : BT.709

    Audio #1
    ID : 2
    Format : AC-3
    Format/Info : Audio Coding 3
    Format profile : Dolby Digital
    Mode extension : CM (complete main)
    Format settings, Endianness : Big
    Codec ID : A_AC3
    Duration : 1h 26mn
    Bit rate mode : Constant
    Bit rate : 192 Kbps
    Channel(s) : 2 channels
    Channel positions : Front: L R
    Sampling rate : 48.0 KHz
    Frame rate : 31.250 fps (1536 spf)
    Compression mode : Lossy
    Stream size : 119 MiB (4%)
    Title : AC3 2.0
    Language : Italian
    Default : Yes
    Forced : No

    Audio #2
    ID : 3
    Format : AC-3
    Format/Info : Audio Coding 3
    Mode extension : CM (complete main)
    Format settings, Endianness : Big
    Codec ID : A_AC3
    Duration : 1h 26mn
    Bit rate mode : Constant
    Bit rate : 448 Kbps
    Channel(s) : 2 channels
    Channel positions : Front: L R
    Sampling rate : 48.0 KHz
    Frame rate : 31.250 fps (1536 spf)
    Compression mode : Lossy
    Stream size : 277 MiB (9%)
    Title : AC3 2.0
    Language : Japanese
    Default : No
    Forced : No

    Text
    ID : 4
    Format : UTF-8
    Codec ID : S_TEXT/UTF8
    Codec ID/Info : UTF-8 Plain Text
    Duration : 1h 26mn
    Bit rate : 35 bps
    Count of elements : 720
    Stream size : 22.2 KiB (0%)
    Title : Normal
    Language : Italian
    Default : No
    Forced : No

    Menu
    00:00:00.000 : en:00:00:00.000
    00:02:12.132 : en:00:02:12.132
    00:07:27.280 : en:00:07:27.280
    00:10:34.342 : en:00:10:34.342
    00:15:42.066 : en:00:15:42.066
    00:20:53.586 : en:00:20:53.586
    00:24:55.953 : en:00:24:55.953
    00:31:27.385 : en:00:31:27.385
    00:35:46.561 : en:00:35:46.561
    00:41:19.811 : en:00:41:19.811
    00:46:18.651 : en:00:46:18.651
    00:50:06.670 : en:00:50:06.670
    00:56:17.040 : en:00:56:17.040
    01:02:10.393 : en:01:02:10.393
    01:07:08.608 : en:01:07:08.608
    01:11:36.375 : en:01:11:36.375
    01:17:06.622 : en:01:17:06.622
    01:23:25.626 : en:01:23:25.626






    ** Contenuto Nascosto: Schiaccia il bottone RINGRAZIA per visualizzare i link **


    Password: W9uf3209bh0Ped970N
  2. 10 utenti hanno ringraziato PirateMKV per ciò che ha scritto.

    danyandgeri (2 Settimane Fa), eddysaint (23.10.2016), hitokiri (27.01.2017), madido (16.12.2016), massapoko (13.11.2016), Menarello (16.10.2016), mongoporno (1 Settimana Fa), porter (29.01.2017), robyip (14.12.2016), VITTORIOO (2 Giorni Fa)

Permessi di Scrittura

  • Tu non puoi inviare nuove discussioni
  • Tu non puoi inviare risposte
  • Tu non puoi inviare allegati
  • Tu non puoi modificare i tuoi messaggi
  •