HomePage - Come attivare il proprio account - Regole del Forum

HOT NEWS!!!

Il piccolo principe (2015) BDRip 720p HEVC ITA ENG AC3 ITA ENG Sub PirateMKV

Rogue one-a Star Wars story (2016)


Rogue One A Star Wars Story il primo capitolo di una nuova avventurosa serie cinematografica che esplora i personaggi e gli eventi che ruotano intorno alla saga di Guerre Stellari.


1080p
720p
UNTOUCHED-1080p
BLURAY FULL
BLURAY FULL 3D
Il piccolo principe (2015) BDRip 720p HEVC ITA ENG AC3 ITA ENG Sub PirateMKV


Avviso a tutti i lettori di mondowarezz.Le sezioni Ebook,Quotidiani e Riviste.Sono momentaneamente chiuse.Vi preghiamo di non intasare la chatbox con le stesse domande.Grazie
Risultati da 1 a 1 di 1
  1. #1
    Status
    Offline
    L'avatar di PirateMKV
    Data Registrazione

    08.04.2015

    Messaggi

    2,781

    Ha ringraziato
    85 volte
    Ha Ricevuto 14,708 ringraziamenti in 2,519 discussioni volte
    Taggato
    1 Post(s)

    Il piccolo principe (2015) BDRip 720p HEVC ITA ENG AC3 ITA ENG Sub PirateMKV






    Titolo: The Little Prince
    Nazione: France, Canada
    Anno: 2015
    Genere: Animation, Fantasy
    Durata: 108 min
    Regia: Mark Osborne
    Cast: Jeff Bridges, Rachel McAdams, Paul Rudd, Marion Cotillard


    Una bambina si traferisce con la madre in un nuovo quartiere. Qui dovr impegnarsi nello studio secondo un planning estremamente articolato elaborato dalla madre la quale, donna in carriera, vuole assolutamente che la figlia si inserisca nei corsi della prestigiosa Accademia Werth finalizzata a formare i manager del futuro. Il nuovo vicino di casa un anziano aviatore che prende a raccontare alla bambina del suo incontro, avvenuto tanti anni prima nel deserto africano, con un Piccolo Principe giunto sulla Terra dopo un lungo viaggio tra gli asteroidi. La bambina inizialmente sembra voler resistere alla narrazione ma progressivamente se ne fa catturare.

    Nome Versione: PirateMKV
    Fonte Video: BluRay
    Fonte Audio: BluRay



     






     

    General
    Unique ID : 247004371468565774025804381027314347314 (0xB9D34FC11FB3D4368AE45EF1FAA6AD32)
    Complete name : C:\Users\Administrator\Downloads\The Little Prince 2015\mux\Il piccolo principe (2015) BDRip 720p HEVC ITA ENG AC3 ITA ENG Sub PirateMKV.mkv
    Format : Matroska
    Format version : Version 4 / Version 2
    File size : 2.12 GiB
    Duration : 1h 46mn
    Overall bit rate : 2 847 Kbps
    Movie name : Il piccolo principe (2015) - PirateMKV
    Encoded date : UTC 2016-05-05 15:08:25
    Writing application : mkvmerge v9.1.0 ('Little Earthquakes') 64bit
    Writing library : libebml v1.3.3 libmatroska v1.4.4 / Lavf57.34.103

    Video
    ID : 1
    Format : HEVC
    Format/Info : High Efficiency Video Coding
    Format profile : [email protected]@Main
    Codec ID : V_MPEGH/ISO/HEVC
    Duration : 1h 46mn
    Bit rate : 1 565 Kbps
    Width : 1 280 pixels
    Height : 546 pixels
    Display aspect ratio : 2.35:1
    Original display aspect ratio : 2.35:1
    Frame rate mode : Constant
    Frame rate : 23.976 (24000/1001) fps
    Color space : YUV
    Chroma subsampling : 4:2:0
    Bit depth : 8 bits
    Bits/(Pixel*Frame) : 0.093
    Stream size : 1.17 GiB (55%)
    Writing library : x265 1.9:[Windows][GCC 5.2.0][64 bit] 8bit
    Encoding settings : wpp / ctu=64 / min-cu-size=8 / max-tu-size=32 / tu-intra-depth=3 / tu-inter-depth=3 / me=2 / subme=4 / merange=57 / no-rect / no-amp / max-merge=3 / temporal-mvp / no-early-skip / rdpenalty=0 / no-tskip / no-tskip-fast / strong-intra-smoothing / no-lossless / no-cu-lossless / no-constrained-intra / fast-intra / open-gop / no-temporal-layers / interlace=0 / keyint=250 / min-keyint=23 / scenecut=40 / rc-lookahead=40 / lookahead-slices=0 / bframes=8 / bframe-bias=0 / b-adapt=2 / ref=5 / limit-refs=1 / limit-modes / weightp / weightb / aq-mode=1 / qg-size=32 / aq-strength=2.00 / cbqpoffs=0 / crqpoffs=0 / rd=4 / psy-rd=1.00 / rdoq-level=0 / psy-rdoq=0.00 / signhide / deblock=-1:-1 / sao / no-sao-non-deblock / b-pyramid / no-cutree / no-intra-refresh / rc=crf / crf=20.0 / qcomp=0.60 / qpmin=0 / qpmax=51 / qpstep=4 / vbv-maxrate=12000 / vbv-bufsize=12000 / crf-max=0.0 / ipratio=1.40 / pbratio=1.30
    Language : English
    Default : Yes
    Forced : No
    Color range : Limited
    Matrix coefficients : BT.709

    Audio #1
    ID : 2
    Format : AC-3
    Format/Info : Audio Coding 3
    Mode extension : CM (complete main)
    Format settings, Endianness : Big
    Codec ID : A_AC3
    Duration : 1h 46mn
    Bit rate mode : Constant
    Bit rate : 640 Kbps
    Channel(s) : 6 channels
    Channel positions : Front: L C R, Side: L R, LFE
    Sampling rate : 48.0 KHz
    Frame rate : 31.250 fps (1536 spf)
    Compression mode : Lossy
    Stream size : 488 MiB (22%)
    Title : AC3 5.1
    Language : Italian
    Default : Yes
    Forced : No

    Audio #2
    ID : 3
    Format : AC-3
    Format/Info : Audio Coding 3
    Mode extension : CM (complete main)
    Format settings, Endianness : Big
    Codec ID : A_AC3
    Duration : 1h 46mn
    Bit rate mode : Constant
    Bit rate : 640 Kbps
    Channel(s) : 6 channels
    Channel positions : Front: L C R, Side: L R, LFE
    Sampling rate : 48.0 KHz
    Frame rate : 31.250 fps (1536 spf)
    Compression mode : Lossy
    Stream size : 488 MiB (22%)
    Title : AC3 5.1
    Language : English
    Default : No
    Forced : No

    Text #1
    ID : 4
    Format : UTF-8
    Codec ID : S_TEXT/UTF8
    Codec ID/Info : UTF-8 Plain Text
    Duration : 1h 35mn
    Bit rate : 0 bps
    Count of elements : 11
    Stream size : 235 Bytes (0%)
    Title : Forced
    Language : Italian
    Default : Yes
    Forced : Yes

    Text #2
    ID : 5
    Format : UTF-8
    Codec ID : S_TEXT/UTF8
    Codec ID/Info : UTF-8 Plain Text
    Duration : 1h 35mn
    Bit rate : 0 bps
    Count of elements : 11
    Stream size : 228 Bytes (0%)
    Title : Forced
    Language : English
    Default : No
    Forced : No

    Text #3
    ID : 6
    Format : UTF-8
    Codec ID : S_TEXT/UTF8
    Codec ID/Info : UTF-8 Plain Text
    Duration : 1h 37mn
    Bit rate : 53 bps
    Count of elements : 1022
    Stream size : 38.1 KiB (0%)
    Title : SDH
    Language : Italian
    Default : No
    Forced : No

    Text #4
    ID : 7
    Format : UTF-8
    Codec ID : S_TEXT/UTF8
    Codec ID/Info : UTF-8 Plain Text
    Duration : 1h 37mn
    Bit rate : 41 bps
    Count of elements : 1037
    Stream size : 29.8 KiB (0%)
    Title : Normal
    Language : English
    Default : No
    Forced : No

    Menu
    00:00:00.000 : :Chapter 01
    00:06:11.537 : :Chapter 02
    00:16:06.840 : :Chapter 03
    00:22:35.854 : :Chapter 04
    00:32:19.896 : :Chapter 05
    00:38:05.283 : :Chapter 06
    00:43:55.299 : :Chapter 07
    00:49:36.682 : :Chapter 08
    00:57:30.864 : :Chapter 09
    01:08:33.192 : :Chapter 10
    01:14:05.983 : :Chapter 11
    01:20:31.743 : :Chapter 12
    01:27:21.569 : :Chapter 13
    01:39:06.315 : :Chapter 14






    ** Contenuto Nascosto: Schiaccia il bottone RINGRAZIA per visualizzare i link **


    Password: W9uf3209bh0Ped970N
  2. 12 utenti hanno ringraziato PirateMKV per ci che ha scritto.

    Coby76 (03.02.2017), ddossi (12.06.2016), deathnote1 (22.05.2016), delvi (15.05.2016), DINAELVIS (13.09.2016), LoruManu (09.05.2016), luisepulveda (09.10.2016), madido (08.05.2016), nemo (09.05.2016), prisco78 (05.05.2016), ronaldo (28.08.2016), tamgiucla (17.06.2016)

Permessi di Scrittura

  • Tu non puoi inviare nuove discussioni
  • Tu non puoi inviare risposte
  • Tu non puoi inviare allegati
  • Tu non puoi modificare i tuoi messaggi
  •