HomePage - Come attivare il proprio account - Regole del Forum

HOT NEWS!!!

Il Trono di Spade - Stagione 02 (2012) BDRip 1080p HEVC ITA ENG AC3 ITA ENG Sub PirateMKV

Ghost in the Shell (2017)


Major, un agente speciale, un ibrido tra cyborg e umano unico nel suo genere, guida la task force speciale Section 9. Incaricata di fermare i pi pericolosi criminali ed estremisti.


1080p
720p
UNTOUCHED-1080p
BLURAY FULL
BLURAY FULL 3D
Il Trono di Spade - Stagione 02 (2012) BDRip 1080p HEVC ITA ENG AC3 ITA ENG Sub PirateMKV
Risultati da 1 a 6 di 6
  1. #1
    Status
    Offline
    L'avatar di PirateMKV
    Data Registrazione

    08.04.2015

    Messaggi

    3,125

    Ha ringraziato
    79 volte
    Ha Ricevuto 22,049 ringraziamenti in 2,956 discussioni volte
    Taggato
    1 Post(s)

    Il Trono di Spade - Stagione 02 (2012) BDRip 1080p HEVC ITA ENG AC3 ITA ENG Sub PirateMKV






    Titolo: Game of Thrones
    Nazione: USA
    Anno: 2012
    Genere: Adventure, Drama, Fantasy
    Durata: 56 min
    Regia: N/A
    Cast: Peter Dinklage, Lena Headey, Emilia Clarke, Kit Harington


    Sette famiglie nobili in lotta per il controllo della mitica terra di Westeros. Le famiglie dominanti sono la Stark Case, Lannister, e Baratheon. L'attrito tra questi clan, e con le restanti grandi case Greyjoy, Tully, Arryn e Tyrell, conduce alla guerra su vasta scala. Tra guerra e confusione politica, un ordine militare trascurato di disadattati, i Guardiani della notte, tutto ci che interferir tra i regni degli uomini e gli orrori che vi sono al di l del ghiaccio.

    Nome Versione: PirateMKV
    Fonte Video: BluRay
    Fonte Audio: BluRay



     






     

    General
    Unique ID : 203474928969373424891662763899260661477 (0x9913D88A81461B1087B46F63506E6EE5)
    Complete name : C:\Users\Administrator\Desktop\Game of Thrones - S02E01 (2012) BDRip 1080p HEVC ITA ENG AC3 ITA ENG Sub PirateMKV.mkv
    Format : Matroska
    Format version : Version 4 / Version 2
    File size : 3.20 GiB
    Duration : 52mn 41s
    Overall bit rate : 8 690 Kbps
    Movie name : Game of Thrones - S02E01 - The North Remembers - PirateMKV
    Encoded date : UTC 2016-03-10 17:37:56
    Writing application : mkvmerge v8.9.0 ('Father Daughter') 64bit
    Writing library : libebml v1.3.3 libmatroska v1.4.4 / Lavf57.28.100

    Video
    ID : 1
    Format : HEVC
    Format/Info : High Efficiency Video Coding
    Format profile : [email protected]@Main
    Codec ID : V_MPEGH/ISO/HEVC
    Duration : 52mn 41s
    Bit rate : 7 408 Kbps
    Width : 1 920 pixels
    Height : 1 080 pixels
    Display aspect ratio : 16:9
    Frame rate mode : Constant
    Frame rate : 23.976 (24000/1001) fps
    Color space : YUV
    Chroma subsampling : 4:2:0
    Bit depth : 8 bits
    Bits/(Pixel*Frame) : 0.149
    Stream size : 2.73 GiB (85%)
    Writing library : x265 1.9:[Windows][GCC 5.2.0][64 bit] 8bit
    Encoding settings : wpp / ctu=64 / min-cu-size=8 / max-tu-size=32 / tu-intra-depth=3 / tu-inter-depth=3 / me=2 / subme=4 / merange=57 / no-rect / no-amp / max-merge=3 / temporal-mvp / no-early-skip / rdpenalty=0 / no-tskip / no-tskip-fast / strong-intra-smoothing / no-lossless / no-cu-lossless / no-constrained-intra / fast-intra / open-gop / no-temporal-layers / interlace=0 / keyint=250 / min-keyint=23 / scenecut=40 / rc-lookahead=40 / lookahead-slices=0 / bframes=8 / bframe-bias=0 / b-adapt=2 / ref=4 / limit-refs=1 / limit-modes / weightp / weightb / aq-mode=1 / qg-size=32 / aq-strength=2.00 / cbqpoffs=0 / crqpoffs=0 / rd=4 / psy-rd=1.00 / rdoq-level=0 / psy-rdoq=0.00 / signhide / deblock=-1:-1 / sao / no-sao-non-deblock / b-pyramid / no-cutree / no-intra-refresh / rc=crf / crf=22.0 / qcomp=0.60 / qpmin=0 / qpmax=51 / qpstep=4 / vbv-maxrate=12000 / vbv-bufsize=12000 / crf-max=0.0 / ipratio=1.40 / pbratio=1.30
    Language : English
    Default : Yes
    Forced : No
    Color range : Limited
    Matrix coefficients : BT.709

    Audio #1
    ID : 2
    Format : AC-3
    Format/Info : Audio Coding 3
    Mode extension : CM (complete main)
    Format settings, Endianness : Big
    Codec ID : A_AC3
    Duration : 52mn 41s
    Bit rate mode : Constant
    Bit rate : 640 Kbps
    Channel(s) : 6 channels
    Channel positions : Front: L C R, Side: L R, LFE
    Sampling rate : 48.0 KHz
    Frame rate : 31.250 fps (1536 spf)
    Compression mode : Lossy
    Stream size : 241 MiB (7%)
    Title : AC3 5.1
    Language : Italian
    Default : Yes
    Forced : No

    Audio #2
    ID : 3
    Format : AC-3
    Format/Info : Audio Coding 3
    Mode extension : CM (complete main)
    Format settings, Endianness : Big
    Codec ID : A_AC3
    Duration : 52mn 41s
    Bit rate mode : Constant
    Bit rate : 640 Kbps
    Channel(s) : 6 channels
    Channel positions : Front: L C R, Side: L R, LFE
    Sampling rate : 48.0 KHz
    Frame rate : 31.250 fps (1536 spf)
    Compression mode : Lossy
    Stream size : 241 MiB (7%)
    Title : AC3 5.1
    Language : English
    Default : No
    Forced : No

    Text #1
    ID : 4
    Format : UTF-8
    Codec ID : S_TEXT/UTF8
    Codec ID/Info : UTF-8 Plain Text
    Duration : 34mn 32s
    Bit rate : 1 bps
    Count of elements : 8
    Stream size : 413 Bytes (0%)
    Title : Forced
    Language : Italian
    Default : Yes
    Forced : Yes

    Text #2
    ID : 5
    Format : UTF-8
    Codec ID : S_TEXT/UTF8
    Codec ID/Info : UTF-8 Plain Text
    Duration : 44s 128ms
    Bit rate : 67 bps
    Count of elements : 7
    Stream size : 372 Bytes (0%)
    Title : Forced
    Language : English
    Default : No
    Forced : No

    Text #3
    ID : 6
    Format : UTF-8
    Codec ID : S_TEXT/UTF8
    Codec ID/Info : UTF-8 Plain Text
    Duration : 49mn 24s
    Bit rate : 70 bps
    Count of elements : 725
    Stream size : 25.7 KiB (0%)
    Title : SDH
    Language : Italian
    Default : No
    Forced : No

    Text #4
    ID : 7
    Format : UTF-8
    Codec ID : S_TEXT/UTF8
    Codec ID/Info : UTF-8 Plain Text
    Duration : 48mn 52s
    Bit rate : 70 bps
    Count of elements : 740
    Stream size : 25.3 KiB (0%)
    Title : SDH
    Language : English
    Default : No
    Forced : No

    Menu
    00:00:00.000 : :00:00:00.000
    00:01:54.531 : :00:01:54.531
    00:10:16.157 : :00:10:16.157
    00:18:15.511 : :00:18:15.511
    00:24:27.216 : :00:24:27.216
    00:31:39.689 : :00:31:39.689
    00:41:03.670 : :00:41:03.670
    00:51:21.704 : :00:51:21.704






    ** Contenuto Nascosto: Schiaccia il bottone RINGRAZIA per visualizzare i link **


    Password: W9uf3209bh0Ped970N
    Ultima modifica di PirateMKV; 10.11.2016 alle 18:53
  2. 45 utenti hanno ringraziato PirateMKV per ci che ha scritto.

    adb80 (17.06.2017), Alexia (11.05.2017), Asclepio Tantris (05.12.2016), aulin64 (07.07.2016), chupacicci (1 Settimana Fa), cristiano7800 (22.06.2017), CUmirco (22.06.2016), danyluke (11.06.2016), enzo1163 (20.10.2016), fabio90mm (1 Settimana Fa), frydag (18.05.2016), geniusmiki (22.05.2016), gerico (25.05.2016), giacomoho (13.03.2017), Giax (03.06.2016), ginopap (15.05.2016), hsnmor (19.08.2016), jammy72 (10.04.2016), jasonmac2012 (26.04.2016), Jblue (22.03.2016), Lucchior (17.12.2016), luciferk (01.11.2016), Marvoch (04.10.2016), mazinga1986 (09.04.2017), mp65 (14.06.2017), nokiano (19.06.2016), oigressulem (16.04.2016), picarddontoro (27.06.2016), pieber86 (30.08.2016), pino88 (16.03.2017), pippogota105 (02.07.2016), pizzardello (21.06.2016), Plinio78 (16.03.2016), ragefactory (23.05.2016), RELEONE1946 (31.07.2016), rinoceronte (29.05.2016), sanchez (03.07.2016), servadze (27.08.2016), spyke (26.01.2017), [email protected] (23.05.2016), TheYagami (24.05.2016), tonymontagna (2 Settimane Fa), vachiro (16.10.2016), VinX360 (30.07.2016), viruserol (23.04.2016)

  3. #2
    Status
    Offline
    L'avatar di oigressulem
    Data Registrazione

    18.10.2012

    Messaggi

    1

    Ha ringraziato
    55 volte
    Thanked 3 Times in 1 Post volte
    Taggato
    0 Post(s)
    salve, ma su keeplinks dove chiede link password cosa devo mettere? grazie mille
  4. 3 utenti hanno ringraziato oigressulem per ci che ha scritto.

    fabio90mm (1 Settimana Fa), pieber86 (30.08.2016), VinX360 (05.08.2016)

  5. #3
    Status
    Offline
    L'avatar di PirateMKV
    Data Registrazione

    08.04.2015

    Messaggi

    3,125

    Ha ringraziato
    79 volte
    Ha Ricevuto 22,049 ringraziamenti in 2,956 discussioni volte
    Taggato
    1 Post(s)
    Citazione Originariamente Scritto da oigressulem Visualizza Messaggio
    salve, ma su keeplinks dove chiede link password cosa devo mettere? grazie mille
    la password keeplinks da richiedere per mp.
  6. 3 utenti hanno ringraziato PirateMKV per ci che ha scritto.

    Jblue (20.04.2016), pieber86 (30.08.2016), VinX360 (05.08.2016)

  7. #4
  8. The Following User Says Thank You to [email protected] For This Useful Post:

    pieber86 (30.08.2016)

  9. #5
    Status
    Offline
    L'avatar di geniusmiki
    Data Registrazione

    03.11.2013

    Messaggi

    13

    Ha ringraziato
    541 volte
    Ha Ricevuto 12 ringraziamenti in 5 discussioni volte
    Taggato
    0 Post(s)
    E' possibile ricevere la password? Grazie
  10. 2 utenti hanno ringraziato geniusmiki per ci che ha scritto.

    pieber86 (30.08.2016), VinX360 (05.08.2016)

  11. #6
    Status
    Offline
    L'avatar di PirateMKV
    Data Registrazione

    08.04.2015

    Messaggi

    3,125

    Ha ringraziato
    79 volte
    Ha Ricevuto 22,049 ringraziamenti in 2,956 discussioni volte
    Taggato
    1 Post(s)
    la password keeplinks da richiedere per mp (messaggio privato)
    SEVERAMENTE VIETATO REUPPARE LE MIE RELEASE SENZA IL MIO CONSENSO

    Se non avete l'elenco online delle password Keeplinks dei miei film, potete riceverlo via pm. L'elenco aggiornato costantemente quindi baster richiederlo solo una volta.
  12. 3 utenti hanno ringraziato PirateMKV per ci che ha scritto.

    giacomoho (13.03.2017), pieber86 (30.08.2016), VinX360 (05.08.2016)

Permessi di Scrittura

  • Tu non puoi inviare nuove discussioni
  • Tu non puoi inviare risposte
  • Tu non puoi inviare allegati
  • Tu non puoi modificare i tuoi messaggi
  •