HomePage - Come attivare il proprio account - Regole del Forum

HOT NEWS!!!

Il Trono di Spade - Stagione 04 (2014) BDRip 1080p HEVC ITA ENG AC3 ITA ENG Sub PirateMKV

Rogue one-a Star Wars story (2016)


Rogue One A Star Wars Story Ŕ il primo capitolo di una nuova avventurosa serie cinematografica che esplora i personaggi e gli eventi che ruotano intorno alla saga di Guerre Stellari.


1080p
720p
UNTOUCHED-1080p
BLURAY FULL
BLURAY FULL 3D
Il Trono di Spade - Stagione 04 (2014) BDRip 1080p HEVC ITA ENG AC3 ITA ENG Sub PirateMKV


Avviso a tutti i lettori di mondowarezz.Le sezioni Ebook,Quotidiani e Riviste.Sono momentaneamente chiuse.Vi preghiamo di non intasare la chatbox con le stesse domande.Grazie
Risultati da 1 a 5 di 5
  1. #1
    Status
    Offline
    L'avatar di PirateMKV
    Data Registrazione

    08.04.2015

    Messaggi

    2,781

    Ha ringraziato
    85 volte
    Ha Ricevuto 14,346 ringraziamenti in 2,505 discussioni volte
    Taggato
    1 Post(s)

    Il Trono di Spade - Stagione 04 (2014) BDRip 1080p HEVC ITA ENG AC3 ITA ENG Sub PirateMKV






    Titolo: Game of Thrones
    Nazione: USA
    Anno: 2014
    Genere: Adventure, Drama, Fantasy
    Durata: 56 min
    Regia: N/A
    Cast: Peter Dinklage, Lena Headey, Emilia Clarke, Kit Harington


    Sette famiglie nobili in lotta per il controllo della mitica terra di Westeros. Le famiglie dominanti sono la Stark Case, Lannister, e Baratheon. L'attrito tra questi clan, e con le restanti grandi case Greyjoy, Tully, Arryn e Tyrell, conduce alla guerra su vasta scala. Tra guerra e confusione politica, un ordine militare trascurato di disadattati, i Guardiani della notte, Ŕ tutto ci˛ che interferirÓ tra i regni degli uomini e gli orrori che vi sono al di lÓ del ghiaccio.

    Nome Versione: PirateMKV
    Fonte Video: BluRay
    Fonte Audio: BluRay



     






     

    General
    Unique ID : 177315536759673144759603821290620546928 (0x8565BAED686353EBAEEBB5525BBD6F70)
    Complete name : C:\Users\Administrator\Downloads\GOT4\Il Trono di Spade - S04E01 - Two Swords (2014) BDRip 1080p HEVC ITA ENG AC3 ITA ENG Sub PirateMKV.mkv
    Format : Matroska
    Format version : Version 4 / Version 2
    File size : 2.82 GiB
    Duration : 58mn 13s
    Overall bit rate : 6 922 Kbps
    Movie name : Game of Thrones - S04E01 - Two Swords (2014) - PirateMKV
    Encoded date : UTC 2016-04-26 16:16:03
    Writing application : mkvmerge v9.1.0 ('Little Earthquakes') 64bit
    Writing library : libebml v1.3.3 libmatroska v1.4.4 / Lavf57.34.102

    Video
    ID : 1
    Format : HEVC
    Format/Info : High Efficiency Video Coding
    Format profile : [email protected]@Main
    Codec ID : V_MPEGH/ISO/HEVC
    Duration : 58mn 13s
    Bit rate : 5 640 Kbps
    Width : 1 920 pixels
    Height : 1 080 pixels
    Display aspect ratio : 16:9
    Frame rate mode : Constant
    Frame rate : 23.976 (24000/1001) fps
    Color space : YUV
    Chroma subsampling : 4:2:0
    Bit depth : 8 bits
    Bits/(Pixel*Frame) : 0.113
    Stream size : 2.29 GiB (81%)
    Writing library : x265 1.9:[Windows][GCC 5.2.0][64 bit] 8bit
    Encoding settings : wpp / ctu=64 / min-cu-size=8 / max-tu-size=32 / tu-intra-depth=3 / tu-inter-depth=3 / me=2 / subme=4 / merange=57 / no-rect / no-amp / max-merge=3 / temporal-mvp / no-early-skip / rdpenalty=0 / no-tskip / no-tskip-fast / strong-intra-smoothing / no-lossless / no-cu-lossless / no-constrained-intra / fast-intra / open-gop / no-temporal-layers / interlace=0 / keyint=250 / min-keyint=23 / scenecut=40 / rc-lookahead=40 / lookahead-slices=0 / bframes=8 / bframe-bias=0 / b-adapt=2 / ref=4 / limit-refs=1 / limit-modes / weightp / weightb / aq-mode=1 / qg-size=32 / aq-strength=2.00 / cbqpoffs=0 / crqpoffs=0 / rd=4 / psy-rd=1.00 / rdoq-level=0 / psy-rdoq=0.00 / signhide / deblock=-1:-1 / sao / no-sao-non-deblock / b-pyramid / no-cutree / no-intra-refresh / rc=crf / crf=22.0 / qcomp=0.60 / qpmin=0 / qpmax=51 / qpstep=4 / vbv-maxrate=12000 / vbv-bufsize=12000 / crf-max=0.0 / ipratio=1.40 / pbratio=1.30
    Default : Yes
    Forced : No
    Color range : Limited
    Matrix coefficients : BT.709

    Audio #1
    ID : 2
    Format : AC-3
    Format/Info : Audio Coding 3
    Mode extension : CM (complete main)
    Format settings, Endianness : Big
    Codec ID : A_AC3
    Duration : 58mn 13s
    Bit rate mode : Constant
    Bit rate : 640 Kbps
    Channel(s) : 6 channels
    Channel positions : Front: L C R, Side: L R, LFE
    Sampling rate : 48.0 KHz
    Frame rate : 31.250 fps (1536 spf)
    Compression mode : Lossy
    Stream size : 267 MiB (9%)
    Title : AC3 5.1
    Language : Italian
    Default : Yes
    Forced : No

    Audio #2
    ID : 3
    Format : AC-3
    Format/Info : Audio Coding 3
    Mode extension : CM (complete main)
    Format settings, Endianness : Big
    Codec ID : A_AC3
    Duration : 58mn 13s
    Bit rate mode : Constant
    Bit rate : 640 Kbps
    Channel(s) : 6 channels
    Channel positions : Front: L C R, Side: L R, LFE
    Sampling rate : 48.0 KHz
    Frame rate : 31.250 fps (1536 spf)
    Compression mode : Lossy
    Stream size : 267 MiB (9%)
    Title : AC3 5.1
    Language : English
    Default : No
    Forced : No

    Text #1
    ID : 4
    Format : UTF-8
    Codec ID : S_TEXT/UTF8
    Codec ID/Info : UTF-8 Plain Text
    Duration : 11s 845ms
    Bit rate : 92 bps
    Count of elements : 5
    Stream size : 137 Bytes (0%)
    Title : Forced
    Language : Italian
    Default : Yes
    Forced : Yes

    Text #2
    ID : 5
    Format : UTF-8
    Codec ID : S_TEXT/UTF8
    Codec ID/Info : UTF-8 Plain Text
    Duration : 11s 887ms
    Bit rate : 78 bps
    Count of elements : 5
    Stream size : 117 Bytes (0%)
    Title : Forced
    Language : English
    Default : No
    Forced : No

    Text #3
    ID : 6
    Format : UTF-8
    Codec ID : S_TEXT/UTF8
    Codec ID/Info : UTF-8 Plain Text
    Duration : 56mn 14s
    Bit rate : 67 bps
    Count of elements : 747
    Stream size : 27.8 KiB (0%)
    Title : SDH
    Language : Italian
    Default : No
    Forced : No

    Text #4
    ID : 7
    Format : UTF-8
    Codec ID : S_TEXT/UTF8
    Codec ID/Info : UTF-8 Plain Text
    Duration : 56mn 5s
    Bit rate : 0 bps
    Count of elements : 832
    Stream size : 0.00 Byte (0%)
    Title : SDH
    Language : English
    Default : No
    Forced : No

    Menu
    00:00:00.000 : en:00:00:00.000
    00:00:07.007 : en:00:00:07.007
    00:01:50.485 : en:00:01:50.485
    00:03:38.760 : en:00:03:38.760
    00:09:27.776 : en:00:09:27.776
    00:17:01.979 : en:00:17:01.979
    00:25:16.265 : en:00:25:16.265
    00:36:17.842 : en:00:36:17.842
    00:46:36.252 : en:00:46:36.252
    00:56:51.325 : en:00:56:51.325






    ** Contenuto Nascosto: Schiaccia il bottone RINGRAZIA per visualizzare i link **




    ** Contenuto Nascosto: Schiaccia il bottone RINGRAZIA per visualizzare i link **


    Password: W9uf3209bh0Ped970N
  2. 14 utenti hanno ringraziato PirateMKV per ci˛ che ha scritto.

    andys (24.12.2016), bumbum (30.10.2016), deckard69 (30.01.2017), dudubello (29.06.2016), geniusmiki (28.07.2016), gerico (16.05.2016), gheros63 (19.12.2016), gravity900 (06.10.2016), hsnmor (1 Giorno Fa), picarddontoro (28.06.2016), pino88 (1 Settimana Fa), RELEONE1946 (01.08.2016), sevalberto (13.05.2016), vehemens (05.05.2016)

  3. #2
    Status
    Offline
    L'avatar di geniusmiki
    Data Registrazione

    03.11.2013

    Messaggi

    13

    Ha ringraziato
    512 volte
    Ha Ricevuto 10 ringraziamenti in 5 discussioni volte
    Taggato
    0 Post(s)
    Ragazzi come mai la quarta serie Ŕ down ?
  4. #3
    Status
    Offline
    L'avatar di PirateMKV
    Data Registrazione

    08.04.2015

    Messaggi

    2,781

    Ha ringraziato
    85 volte
    Ha Ricevuto 14,346 ringraziamenti in 2,505 discussioni volte
    Taggato
    1 Post(s)
    keeplinks ha cambiato il protocollo usato dal sito... ora Ŕ https. perci˛ tutti i vecchi link non vengono nemmeno analizzati da jdownloader.. prima di aggiungere il link nel download manager cambiate il protocollo del link in https per farlo analizzare correttamente.
    ╚ SEVERAMENTE VIETATO REUPPARE LE MIE RELEASE SENZA IL MIO CONSENSO

    Se non avete l'elenco online delle password Keeplinks dei miei film, potete riceverlo via pm. L'elenco Ŕ aggiornato costantemente quindi basterÓ richiederlo solo una volta.
  5. The Following User Says Thank You to PirateMKV For This Useful Post:

    geniusmiki (29.07.2016)

  6. #4
    Status
    Offline
    L'avatar di geniusmiki
    Data Registrazione

    03.11.2013

    Messaggi

    13

    Ha ringraziato
    512 volte
    Ha Ricevuto 10 ringraziamenti in 5 discussioni volte
    Taggato
    0 Post(s)
    Ok grazie... Anche se in realtÓ mi dice che mancano comunque dei collegamenti...
  7. #5
    Status
    Offline
    L'avatar di PirateMKV
    Data Registrazione

    08.04.2015

    Messaggi

    2,781

    Ha ringraziato
    85 volte
    Ha Ricevuto 14,346 ringraziamenti in 2,505 discussioni volte
    Taggato
    1 Post(s)
    quello Ŕ possibile... scarica irev files quanti sono i link mancanti per poter scompattare con successo... se i rev non bastano fallo presente e cerco di ripristinare appena possibile..... per il problema di keeplinks basta aggiornare jdownloader
    ╚ SEVERAMENTE VIETATO REUPPARE LE MIE RELEASE SENZA IL MIO CONSENSO

    Se non avete l'elenco online delle password Keeplinks dei miei film, potete riceverlo via pm. L'elenco Ŕ aggiornato costantemente quindi basterÓ richiederlo solo una volta.

Permessi di Scrittura

  • Tu non puoi inviare nuove discussioni
  • Tu non puoi inviare risposte
  • Tu non puoi inviare allegati
  • Tu non puoi modificare i tuoi messaggi
  •