HomePage - Come attivare il proprio account - Regole del Forum

HOT NEWS!!!

Il Trono di Spade - Stagione 05 (2015) BDRip 720p HEVC ITA ENG AC3 ITA ENG Sub PirateMKV

Rogue one-a Star Wars story (2016)


Rogue One A Star Wars Story il primo capitolo di una nuova avventurosa serie cinematografica che esplora i personaggi e gli eventi che ruotano intorno alla saga di Guerre Stellari.


1080p
720p
UNTOUCHED-1080p
BLURAY FULL
BLURAY FULL 3D
Il Trono di Spade - Stagione 05 (2015) BDRip 720p HEVC ITA ENG AC3 ITA ENG Sub PirateMKV


Avviso a tutti i lettori di mondowarezz.Le sezioni Ebook,Quotidiani e Riviste.Sono momentaneamente chiuse.Vi preghiamo di non intasare la chatbox con le stesse domande.Grazie
Risultati da 1 a 1 di 1
  1. #1
    Status
    Offline
    L'avatar di PirateMKV
    Data Registrazione

    08.04.2015

    Messaggi

    2,781

    Ha ringraziato
    85 volte
    Ha Ricevuto 14,447 ringraziamenti in 2,507 discussioni volte
    Taggato
    1 Post(s)

    Il Trono di Spade - Stagione 05 (2015) BDRip 720p HEVC ITA ENG AC3 ITA ENG Sub PirateMKV






    Titolo: Game of Thrones
    Nazione: USA
    Anno: 2015
    Genere: Adventure, Drama, Fantasy
    Durata: 56 min
    Regia: N/A
    Cast: Peter Dinklage, Lena Headey, Emilia Clarke, Kit Harington


    Sette famiglie nobili in lotta per il controllo della mitica terra di Westeros. Le famiglie dominanti sono la Stark Case, Lannister, e Baratheon. L'attrito tra questi clan, e con le restanti grandi case Greyjoy, Tully, Arryn e Tyrell, conduce alla guerra su vasta scala. Tra guerra e confusione politica, un ordine militare trascurato di disadattati, i Guardiani della notte, tutto ci che interferir tra i regni degli uomini e gli orrori che vi sono al di l del ghiaccio.

    Nome Versione: PirateMKV
    Fonte Video: BluRay
    Fonte Audio: BluRay



     






     

    General
    Unique ID : 205229165478782551990546886715255462677 (0x9A65B3141E1608569296158DA8469B15)
    Complete name : C:\Users\Administrator\Downloads\GOT5\mux\Il Trono di Spade - S05E01 - The Wars to Come (2015) BDRip 720p HEVC ITA ENG AC3 ITA ENG Sub PirateMKV.mkv
    Format : Matroska
    Format version : Version 4 / Version 2
    File size : 1.27 GiB
    Duration : 52mn 11s
    Overall bit rate : 3 473 Kbps
    Movie name : Game of Thrones - S05E01 - The Wars to Come (2015) - PirateMKV
    Encoded date : UTC 2016-04-30 12:19:43
    Writing application : mkvmerge v9.1.0 ('Little Earthquakes') 64bit
    Writing library : libebml v1.3.3 libmatroska v1.4.4 / Lavf57.34.103

    Video
    ID : 1
    Format : HEVC
    Format/Info : High Efficiency Video Coding
    Format profile : [email protected]@Main
    Codec ID : V_MPEGH/ISO/HEVC
    Duration : 52mn 11s
    Bit rate : 2 383 Kbps
    Width : 1 280 pixels
    Height : 720 pixels
    Display aspect ratio : 16:9
    Frame rate mode : Constant
    Frame rate : 23.976 (24000/1001) fps
    Color space : YUV
    Chroma subsampling : 4:2:0
    Bit depth : 8 bits
    Bits/(Pixel*Frame) : 0.108
    Stream size : 890 MiB (69%)
    Writing library : x265 1.9:[Windows][GCC 5.2.0][64 bit] 8bit
    Encoding settings : wpp / ctu=64 / min-cu-size=8 / max-tu-size=32 / tu-intra-depth=3 / tu-inter-depth=3 / me=2 / subme=4 / merange=57 / no-rect / no-amp / max-merge=3 / temporal-mvp / no-early-skip / rdpenalty=0 / no-tskip / no-tskip-fast / strong-intra-smoothing / no-lossless / no-cu-lossless / no-constrained-intra / fast-intra / open-gop / no-temporal-layers / interlace=0 / keyint=250 / min-keyint=23 / scenecut=40 / rc-lookahead=40 / lookahead-slices=0 / bframes=8 / bframe-bias=0 / b-adapt=2 / ref=5 / limit-refs=3 / limit-modes / weightp / weightb / aq-mode=1 / qg-size=32 / aq-strength=2.00 / cbqpoffs=0 / crqpoffs=0 / rd=4 / psy-rd=1.00 / rdoq-level=0 / psy-rdoq=0.00 / signhide / deblock=-1:-1 / sao / no-sao-non-deblock / b-pyramid / no-cutree / no-intra-refresh / rc=crf / crf=21.0 / qcomp=0.60 / qpmin=0 / qpmax=51 / qpstep=4 / vbv-maxrate=12000 / vbv-bufsize=12000 / crf-max=0.0 / ipratio=1.40 / pbratio=1.30
    Language : English
    Default : Yes
    Forced : No
    Color range : Limited
    Matrix coefficients : BT.709

    Audio #1
    ID : 2
    Format : AC-3
    Format/Info : Audio Coding 3
    Mode extension : CM (complete main)
    Format settings, Endianness : Big
    Codec ID : A_AC3
    Duration : 52mn 11s
    Bit rate mode : Constant
    Bit rate : 448 Kbps
    Channel(s) : 6 channels
    Channel positions : Front: L C R, Side: L R, LFE
    Sampling rate : 48.0 KHz
    Frame rate : 31.250 fps (1536 spf)
    Compression mode : Lossy
    Stream size : 167 MiB (13%)
    Title : AC3 5.1
    Language : Italian
    Default : Yes
    Forced : No

    Audio #2
    ID : 3
    Format : AC-3
    Format/Info : Audio Coding 3
    Mode extension : CM (complete main)
    Format settings, Endianness : Big
    Codec ID : A_AC3
    Duration : 52mn 11s
    Bit rate mode : Constant
    Bit rate : 640 Kbps
    Channel(s) : 6 channels
    Channel positions : Front: L C R, Side: L R, LFE
    Sampling rate : 48.0 KHz
    Frame rate : 31.250 fps (1536 spf)
    Compression mode : Lossy
    Stream size : 239 MiB (18%)
    Title : AC3 5.1
    Language : English
    Default : No
    Forced : No

    Text #1
    ID : 4
    Format : UTF-8
    Codec ID : S_TEXT/UTF8
    Codec ID/Info : UTF-8 Plain Text
    Duration : 2mn 33s
    Bit rate : 10 bps
    Count of elements : 8
    Stream size : 200 Bytes (0%)
    Title : Forced
    Language : Italian
    Default : Yes
    Forced : Yes

    Text #2
    ID : 5
    Format : UTF-8
    Codec ID : S_TEXT/UTF8
    Codec ID/Info : UTF-8 Plain Text
    Duration : 1mn 35s
    Bit rate : 14 bps
    Count of elements : 7
    Stream size : 170 Bytes (0%)
    Title : Forced
    Language : English
    Default : No
    Forced : No

    Text #3
    ID : 6
    Format : UTF-8
    Codec ID : S_TEXT/UTF8
    Codec ID/Info : UTF-8 Plain Text
    Duration : 48mn 31s
    Bit rate : 59 bps
    Count of elements : 615
    Stream size : 21.2 KiB (0%)
    Title : SDH
    Language : Italian
    Default : No
    Forced : No

    Text #4
    ID : 7
    Format : UTF-8
    Codec ID : S_TEXT/UTF8
    Codec ID/Info : UTF-8 Plain Text
    Duration : 48mn 18s
    Bit rate : 57 bps
    Count of elements : 626
    Stream size : 20.4 KiB (0%)
    Title : SDH
    Language : English
    Default : No
    Forced : No

    Menu
    00:00:00.000 : en:00:00:00.000
    00:01:55.532 : en:00:01:55.532
    00:09:24.564 : en:00:09:24.564
    00:18:00.663 : en:00:18:00.663
    00:24:16.455 : en:00:24:16.455
    00:32:26.820 : en:00:32:26.820
    00:41:24.107 : en:00:41:24.107
    00:50:51.924 : en:00:50:51.924






    ** Contenuto Nascosto: Schiaccia il bottone RINGRAZIA per visualizzare i link **




    ** Contenuto Nascosto: Schiaccia il bottone RINGRAZIA per visualizzare i link **


    Password: W9uf3209bh0Ped970N
  2. 21 utenti hanno ringraziato PirateMKV per ci che ha scritto.

    antjaq (14.11.2016), bbb89 (16.01.2017), brazzino (06.05.2016), doranbolth (21.07.2016), fabio90mm (01.02.2017), g.pezzo (22.06.2016), geniusmiki (22.09.2016), ginopap (09.01.2017), keijimaeda2013 (4 Settimane Fa), Massi6 (03.10.2016), nemo (02.05.2016), Plutoz (20.11.2016), ronco85 (15.05.2016), statozero (23.09.2016), stigno (18.02.2017), TAKKEN99 (20.07.2016), toto2000 (17.06.2016), upiopio (10.11.2016), vale_pier (28.06.2016), VinX360 (05.08.2016), wakeua (3 Settimane Fa)

Permessi di Scrittura

  • Tu non puoi inviare nuove discussioni
  • Tu non puoi inviare risposte
  • Tu non puoi inviare allegati
  • Tu non puoi modificare i tuoi messaggi
  •