HomePage - Come attivare il proprio account - Regole del Forum

HOT NEWS!!!

Il viaggio di Norm (2016) BDRip 720p HEVC ITA ENG AC3 ITA ENG Sub PirateMKV

Rogue one-a Star Wars story (2016)


Rogue One A Star Wars Story Ŕ il primo capitolo di una nuova avventurosa serie cinematografica che esplora i personaggi e gli eventi che ruotano intorno alla saga di Guerre Stellari.


1080p
720p
UNTOUCHED-1080p
BLURAY FULL
BLURAY FULL 3D
Il viaggio di Norm (2016) BDRip 720p HEVC ITA ENG AC3 ITA ENG Sub PirateMKV


Avviso a tutti i lettori di mondowarezz.Le sezioni Ebook,Quotidiani e Riviste.Sono momentaneamente chiuse.Vi preghiamo di non intasare la chatbox con le stesse domande.Grazie
Risultati da 1 a 1 di 1
  1. #1
    Status
    Offline
    L'avatar di PirateMKV
    Data Registrazione

    08.04.2015

    Messaggi

    2,781

    Ha ringraziato
    85 volte
    Ha Ricevuto 14,698 ringraziamenti in 2,519 discussioni volte
    Taggato
    1 Post(s)

    Il viaggio di Norm (2016) BDRip 720p HEVC ITA ENG AC3 ITA ENG Sub PirateMKV






    Titolo: Norm of the North
    Nazione: India, USA
    Anno: 2016
    Genere: Animation, Adventure, Comedy
    Durata: 90 min
    Regia: Trevor Wall
    Cast: Rob Schneider, Heather Graham, Ken Jeong, Bill Nighy


    L'orso polare Norm, erede al trono dell'Artico, non sa cacciare una foca, non prova nessun gusto nel dare spettacolo agli umani di passaggio e non sa bene che farsene della sua innata capacitÓ di parlare "l'umanese". Quando, per˛, la societÓ edile di Mister Greene si presenta sui suoi ghiacci con un prototipo di casa di lusso, intenzionata a colonizzare l'area, Norm capisce che, se qualcuno pu˛ scongiurare l'impresa, quello Ŕ soltanto lui.

    Nome Versione: PirateMKV
    Fonte Video: BluRay
    Fonte Audio: BluRay



     






     

    General
    Unique ID : 217187959341298484999509860097764515011 (0xA364E12358655990801CD75C0C225CC3)
    Complete name : C:\Users\Administrator\Downloads\Norm\Il viaggio di Norm (2016) BDRip 720p HEVC ITA ENG AC3 ITA ENG Sub PirateMKV.mkv
    Format : Matroska
    Format version : Version 4 / Version 2
    File size : 2.41 GiB
    Duration : 1h 30mn
    Overall bit rate : 3 798 Kbps
    Movie name : Il viaggio di Norm (2016) - PirateMKV
    Encoded date : UTC 2016-05-18 14:41:41
    Writing application : mkvmerge v9.1.0 ('Little Earthquakes') 64bit
    Writing library : libebml v1.3.3 libmatroska v1.4.4 / Lavf57.36.100

    Video
    ID : 1
    Format : HEVC
    Format/Info : High Efficiency Video Coding
    Format profile : [email protected]@Main
    Codec ID : V_MPEGH/ISO/HEVC
    Duration : 1h 30mn
    Bit rate : 2 526 Kbps
    Width : 1 280 pixels
    Height : 694 pixels
    Display aspect ratio : 1.85:1
    Frame rate mode : Constant
    Frame rate : 23.976 (24000/1001) fps
    Color space : YUV
    Chroma subsampling : 4:2:0
    Bit depth : 8 bits
    Bits/(Pixel*Frame) : 0.119
    Stream size : 1.60 GiB (66%)
    Writing library : x265 1.9 169-e5b5bdc3c154:[Windows][GCC 5.3.0][64 bit] 8bit
    Encoding settings : wpp / ctu=64 / min-cu-size=8 / max-tu-size=32 / tu-intra-depth=3 / tu-inter-depth=3 / me=2 / subme=4 / merange=57 / no-rect / no-amp / max-merge=3 / temporal-mvp / no-early-skip / no-recursion-skip / rdpenalty=0 / no-tskip / no-tskip-fast / strong-intra-smoothing / no-lossless / no-cu-lossless / no-constrained-intra / fast-intra / open-gop / no-temporal-layers / interlace=0 / keyint=250 / min-keyint=23 / scenecut=40 / rc-lookahead=40 / lookahead-slices=0 / bframes=8 / bframe-bias=0 / b-adapt=2 / ref=5 / limit-refs=1 / limit-modes / weightp / weightb / aq-mode=1 / qg-size=32 / aq-strength=2.00 / cbqpoffs=0 / crqpoffs=0 / rd=4 / psy-rd=1.00 / rdoq-level=0 / psy-rdoq=0.00 / no-rd-refine / signhide / deblock=-1:-1 / sao / no-sao-non-deblock / b-pyramid / no-cutree / no-intra-refresh / rc=crf / crf=20.0 / qcomp=0.60 / qpmin=0 / qpmax=51 / qpstep=4 / vbv-maxrate=12000 / vbv-bufsize=12000 / crf-max=0.0 / ipratio=1.40 / pbratio=1.30
    Language : English
    Default : Yes
    Forced : No
    Color range : Limited
    Matrix coefficients : BT.709

    Audio #1
    ID : 2
    Format : AC-3
    Format/Info : Audio Coding 3
    Mode extension : CM (complete main)
    Format settings, Endianness : Big
    Codec ID : A_AC3
    Duration : 1h 30mn
    Bit rate mode : Constant
    Bit rate : 640 Kbps
    Channel(s) : 6 channels
    Channel positions : Front: L C R, Side: L R, LFE
    Sampling rate : 48.0 KHz
    Frame rate : 31.250 fps (1536 spf)
    Compression mode : Lossy
    Stream size : 416 MiB (17%)
    Title : AC3 5.1
    Language : Italian
    Default : Yes
    Forced : No

    Audio #2
    ID : 3
    Format : AC-3
    Format/Info : Audio Coding 3
    Mode extension : CM (complete main)
    Format settings, Endianness : Big
    Codec ID : A_AC3
    Duration : 1h 30mn
    Bit rate mode : Constant
    Bit rate : 640 Kbps
    Channel(s) : 6 channels
    Channel positions : Front: L C R, Side: L R, LFE
    Sampling rate : 48.0 KHz
    Frame rate : 31.250 fps (1536 spf)
    Compression mode : Lossy
    Stream size : 414 MiB (17%)
    Title : AC3 5.1
    Language : English
    Default : No
    Forced : No

    Text #1
    ID : 4
    Format : UTF-8
    Codec ID : S_TEXT/UTF8
    Codec ID/Info : UTF-8 Plain Text
    Duration : 2s 960ms
    Bit rate : 48 bps
    Count of elements : 1
    Stream size : 18.0 Bytes (0%)
    Title : Forced
    Language : Italian
    Default : Yes
    Forced : Yes

    Text #2
    ID : 5
    Format : UTF-8
    Codec ID : S_TEXT/UTF8
    Codec ID/Info : UTF-8 Plain Text
    Duration : 1h 24mn
    Bit rate : 64 bps
    Count of elements : 1035
    Stream size : 40.1 KiB (0%)
    Title : Normal
    Language : Italian
    Default : No
    Forced : No

    Text #3
    ID : 6
    Format : UTF-8
    Codec ID : S_TEXT/UTF8
    Codec ID/Info : UTF-8 Plain Text
    Duration : 1h 25mn
    Bit rate : 67 bps
    Count of elements : 1292
    Stream size : 42.3 KiB (0%)
    Title : Normal
    Language : English
    Default : No
    Forced : No

    Text #4
    ID : 7
    Format : UTF-8
    Codec ID : S_TEXT/UTF8
    Codec ID/Info : UTF-8 Plain Text
    Duration : 1h 26mn
    Bit rate : 75 bps
    Count of elements : 1639
    Stream size : 47.5 KiB (0%)
    Title : SDH
    Language : English
    Default : No
    Forced : No

    Menu
    00:00:00.000 : en:00:00:00.000
    00:03:58.458 : en:00:03:58.458
    00:08:17.917 : en:00:08:17.917
    00:12:17.667 : en:00:12:17.667
    00:15:42.292 : en:00:15:42.292
    00:20:34.292 : en:00:20:34.292
    00:27:29.792 : en:00:27:29.792
    00:32:57.208 : en:00:32:57.208
    00:38:08.667 : en:00:38:08.667
    00:42:16.667 : en:00:42:16.667
    00:46:23.000 : en:00:46:23.000
    00:50:48.250 : en:00:50:48.250
    00:54:13.333 : en:00:54:13.333
    00:58:21.500 : en:00:58:21.500
    01:02:22.083 : en:01:02:22.083
    01:07:10.750 : en:01:07:10.750
    01:11:22.875 : en:01:11:22.875
    01:15:33.417 : en:01:15:33.417
    01:19:31.167 : en:01:19:31.167
    01:25:20.875 : en:01:25:20.875






    ** Contenuto Nascosto: Schiaccia il bottone RINGRAZIA per visualizzare i link **


    Password: W9uf3209bh0Ped970N
  2. 4 utenti hanno ringraziato PirateMKV per ci˛ che ha scritto.

    dadedade (09.06.2016), nemo (22.05.2016), pacammu (22.09.2016), stigno (4 Settimane Fa)

Permessi di Scrittura

  • Tu non puoi inviare nuove discussioni
  • Tu non puoi inviare risposte
  • Tu non puoi inviare allegati
  • Tu non puoi modificare i tuoi messaggi
  •