HomePage - Come attivare il proprio account - Regole del Forum

HOT NEWS!!!

The Imitation Game  (2014) BDRip 1080p HEVC ITA ENG AC3 ITA ENG SubPirateMKV

Doctor Strange (2016)


Il neurochirurgo Stephen Strange vede la sua vita cambiare per sempre dopo che un terribile incidente automobilistico lo priva delluso delle mani. Quando la medicina tradizionale si dimostra incapace di guarirlo, Strange costretto cercare una cura in un luogo inaspettato: una misteriosa enclave nota come Kamar-Taj.


1080p
720p
UNTOUCHED-1080p
BLURAY FULL
BLURAY FULL 3D
The Imitation Game  (2014) BDRip 1080p HEVC ITA ENG AC3 ITA ENG SubPirateMKV
Risultati da 1 a 2 di 2
  1. #1
    Status
    Offline
    L'avatar di PirateMKV
    Data Registrazione

    08.04.2015

    Messaggi

    2,695

    Ha ringraziato
    80 volte
    Ha Ricevuto 12,564 ringraziamenti in 2,390 discussioni volte
    Taggato
    0 Post(s)

    The Imitation Game (2014) BDRip 1080p HEVC ITA ENG AC3 ITA ENG SubPirateMKV






    Titolo: The Imitation Game
    Nazione: UK, USA
    Anno: 2014
    Genere: Biography, Drama, Thriller
    Durata: 114 min
    Regia: Morten Tyldum
    Cast: Benedict Cumberbatch, Keira Knightley, Matthew Goode, Rory Kinnear


    Manchester, primi anni '50. Alan Turing, brillante matematico ed esperto di crittografia, viene interrogato dall'agente di polizia che lo ha arrestato per atti osceni. Turing inizia a raccontare la sua storia partendo dall'episodio di maggiore rilevanza pubblica: il periodo, durante la Seconda Guerra Mondiale, in cui fu affidato a lui e ad un piccolo gruppo di cervelloni, fra cui un campione di scacchi e un'esperta di enigmistica, il compito di decrittare il codice Enigma, ideato dai Nazisti per comunicare le loro operazioni militari in forma segreta. il primo di una serie di flashback che scandaglieranno la vita dello scienziato morto suicida a 41 anni e considerato oggi uno dei padri dell'informatica in quanto ideatore di una macchina progenitrice del computer.

    Nome Versione: PirateMKV
    Fonte Video: BluRay
    Fonte Audio: BluRay



     






     

    General
    Unique ID : 189221354276015797397322787329786186660 (0x8E5AB50D242435B5B83162F37F1B0BA4)
    Complete name : L:\Done\The Imitation Game (2014) BDRip 1080p HEVC ITA ENG AC3 ITA ENG Sub PirateMKV.mkv
    Format : Matroska
    Format version : Version 4 / Version 2
    File size : 6.97 GiB
    Duration : 1h 54mn
    Overall bit rate : 8 711 Kbps
    Movie name : The Imitation Game (2014) - PirateMKV
    Encoded date : UTC 2015-07-14 17:33:04
    Writing application : mkvmerge v7.9.0 ('Birds') 64bit
    Writing library : libebml v1.3.1 libmatroska v1.4.2
    _STATISTICS_WRITING_APP : mkvmerge v7.9.0 ('Birds') 64bit
    _STATISTICS_WRITING_DATE_UTC : 2015-07-14 17:33:04
    _STATISTICS_TAGS : BPS DURATION NUMBER_OF_FRAMES NUMBER_OF_BYTES
    DURATION : 01:54:37.334000000
    NUMBER_OF_FRAMES : 165056
    NUMBER_OF_BYTES : 6386578602

    Video
    ID : 1
    Format : HEVC
    Format/Info : High Efficiency Video Coding
    Format profile : [email protected]
    Codec ID : V_MPEGH/ISO/HEVC
    Duration : 1h 54mn
    Bit rate : 7 257 Kbps
    Width : 1 920 pixels
    Height : 800 pixels
    Display aspect ratio : 2.40:1
    Frame rate mode : Constant
    Frame rate : 24.000 fps
    Color space : YUV
    Chroma subsampling : 4:2:0
    Bit depth : 8 bits
    Bits/(Pixel*Frame) : 0.197
    Stream size : 5.81 GiB (83%)
    Title : The Imitation Game (2014) - PirateMKV
    Writing library : x265 1.7 286-1162fb0b99f82d32:[Windows][MSVC 1800][64 bit] 8bit: KG7x [x265.ru]
    Encoding settings : wpp / ctu=64 / min-cu-size=8 / max-tu-size=32 / tu-intra-depth=3 / tu-inter-depth=3 / me=2 / subme=4 / merange=57 / no-rect / no-amp / max-merge=3 / temporal-mvp / early-skip / rdpenalty=0 / no-tskip / no-tskip-fast / strong-intra-smoothing / no-lossless / no-cu-lossless / no-constrained-intra / fast-intra / open-gop / no-temporal-layers / interlace=0 / keyint=250 / min-keyint=24 / scenecut=40 / rc-lookahead=40 / lookahead-slices=0 / bframes=8 / bframe-bias=0 / b-adapt=2 / ref=5 / limit-refs=0 / weightp / weightb / aq-mode=1 / aq-strength=2.00 / cbqpoffs=0 / crqpoffs=0 / rd=4 / psy-rd=1.00 / rdoq-level=0 / psy-rdoq=0.00 / signhide / deblock=-1:-1 / sao / no-sao-non-deblock / b-pyramid / no-cutree / rc=crf / crf=19.0 / qcomp=0.60 / qpmin=0 / qpmax=51 / qpstep=4 / ipratio=1.40 / pbratio=1.30
    Default : Yes
    Forced : No
    Matrix coefficients : BT.709
    Color range : Limited

    Audio #1
    ID : 2
    Format : AC-3
    Format/Info : Audio Coding 3
    Mode extension : CM (complete main)
    Format settings, Endianness : Big
    Codec ID : A_AC3
    Duration : 1h 54mn
    Bit rate mode : Constant
    Bit rate : 640 Kbps
    Channel(s) : 6 channels
    Channel positions : Front: L C R, Side: L R, LFE
    Sampling rate : 48.0 KHz
    Bit depth : 16 bits
    Compression mode : Lossy
    Stream size : 525 MiB (7%)
    Title : AC3 5.1
    Language : Italian
    Default : Yes
    Forced : No

    Audio #2
    ID : 3
    Format : AC-3
    Format/Info : Audio Coding 3
    Mode extension : CM (complete main)
    Format settings, Endianness : Big
    Codec ID : A_AC3
    Duration : 1h 54mn
    Bit rate mode : Constant
    Bit rate : 640 Kbps
    Channel(s) : 6 channels
    Channel positions : Front: L C R, Side: L R, LFE
    Sampling rate : 48.0 KHz
    Bit depth : 16 bits
    Compression mode : Lossy
    Stream size : 525 MiB (7%)
    Title : AC3 5.1
    Language : English
    Default : No
    Forced : No

    Text #1
    ID : 4
    Format : UTF-8
    Codec ID : S_TEXT/UTF8
    Codec ID/Info : UTF-8 Plain Text
    Title : Normal
    Language : Italian
    Default : No
    Forced : No

    Text #2
    ID : 5
    Format : UTF-8
    Codec ID : S_TEXT/UTF8
    Codec ID/Info : UTF-8 Plain Text
    Title : Normal
    Language : English
    Default : No
    Forced : No

    Menu
    00:00:00.000 : en:Chapter 1
    00:05:37.670 : en:Chapter 2
    00:11:59.635 : en:Chapter 3
    00:20:20.010 : en:Chapter 4
    00:26:25.125 : en:Chapter 5
    00:34:00.705 : en:Chapter 6
    00:41:18.225 : en:Chapter 7
    00:50:34.489 : en:Chapter 8
    00:58:08.818 : en:Chapter 9
    01:05:05.568 : en:Chapter 10
    01:09:35.087 : en:Chapter 11
    01:18:45.053 : en:Chapter 12
    01:26:09.998 : en:Chapter 13
    01:35:09.912 : en:Chapter 14
    01:41:48.769 : en:Chapter 15
    01:50:07.017 : en:Chapter 16
    01:54:12.845 : en:Chapter 17






    ** Contenuto Nascosto: Schiaccia il bottone RINGRAZIA per visualizzare i link **




    ** Contenuto Nascosto: Schiaccia il bottone RINGRAZIA per visualizzare i link **


    Password: W9uf3209bh0Ped970N
  2. 10 utenti hanno ringraziato PirateMKV per ci che ha scritto.

    andreafy (13.05.2016), bird (16.10.2016), ciccilleju (23.05.2016), evil ways (11.07.2016), HypnotizeTore (31.08.2016), loz (31.12.2016), serfili651 (13.10.2016), trellano (26.11.2016), verul (11.09.2016), william__wallace (14.07.2016)

  3. #2
    Status
    Offline
    L'avatar di ciccilleju
    Data Registrazione

    07.07.2013

    Messaggi

    22

    Ha ringraziato
    283 volte
    Ha Ricevuto 39 ringraziamenti in 15 discussioni volte
    Taggato
    0 Post(s)
    dice che la password errata
  4. The Following User Says Thank You to ciccilleju For This Useful Post:

    trellano (26.11.2016)

Permessi di Scrittura

  • Tu non puoi inviare nuove discussioni
  • Tu non puoi inviare risposte
  • Tu non puoi inviare allegati
  • Tu non puoi modificare i tuoi messaggi
  •