HomePage - Come attivare il proprio account - Regole del Forum

HOT NEWS!!!

John Rambo - Uncut (2008) BDRip 1080p HEVC ITA ENG AC3 ITA Sub PirateMKV

Passengers (2016)


Durante un viaggio verso una nuova casa su un altro pianeta, due passeggeri vengono svegliati 90 anni prima del previsto per un guasto della nave spaziale.


1080p
720p
UNTOUCHED-1080p
BLURAY FULL
BLURAY FULL 3D
John Rambo - Uncut (2008) BDRip 1080p HEVC ITA ENG AC3 ITA Sub PirateMKV


Avviso a tutti i lettori di mondowarezz.Le sezioni Ebook,Quotidiani e Riviste.Sono momentaneamente chiuse.Vi preghiamo di non intasare la chatbox con le stesse domande.Grazie
Risultati da 1 a 1 di 1
  1. #1
    Status
    Offline
    L'avatar di PirateMKV
    Data Registrazione

    08.04.2015

    Messaggi

    2,781

    Ha ringraziato
    85 volte
    Ha Ricevuto 14,270 ringraziamenti in 2,503 discussioni volte
    Taggato
    1 Post(s)

    John Rambo - Uncut (2008) BDRip 1080p HEVC ITA ENG AC3 ITA Sub PirateMKV






    Titolo: Rambo
    Nazione: USA, Germany
    Anno: 2008
    Genere: Action, Thriller, War
    Durata: 92 min
    Regia: Sylvester Stallone
    Cast: Sylvester Stallone, Julie Benz, Matthew Marsden, Graham McTavish


    John Rambo non pi tornato a casa. L'ex reduce del Vietnam vive al confine tra la Tailandia e la Birmania e risale il fiume Salween per cacciare serpenti velenosi. L'ozio catartico del guerriero turbato da un gruppo di missionari laici, guidati dalla bionda e idealista Sarah Miller, che vorrebbe raggiungere e soccorrere alcuni villaggi birmani vessati da un sadico regime militare. La missione di pace verr duramente interrotta dai soldati di Burma. Messo insieme un esercito di mercenari, Rambo e compagni si imbarcheranno in un'impresa (apparentemente) suicida.

    Nome Versione: PirateMKV
    Fonte Video: BluRay
    Fonte Audio: BluRay



     






     

    General
    Unique ID : 233272217175574884664997818812965977882 (0xAF7E984676EEEFB998B83A5D3AE9FF1A)
    Complete name : C:\Users\Administrator\Downloads\rambo\John Rambo - Uncut (2008) BDRip 1080p HEVC ITA ENG AC3 ITA Sub PirateMKV.mkv
    Format : Matroska
    Format version : Version 4 / Version 2
    File size : 4.25 GiB
    Duration : 1h 31mn
    Overall bit rate : 6 645 Kbps
    Movie name : John Rambo - Uncut (2008) - PirateMKV
    Encoded date : UTC 2016-05-08 14:40:22
    Writing application : mkvmerge v9.1.0 ('Little Earthquakes') 64bit
    Writing library : libebml v1.3.3 libmatroska v1.4.4 / Lavf57.36.100

    Video
    ID : 1
    Format : HEVC
    Format/Info : High Efficiency Video Coding
    Format profile : [email protected]@Main
    Codec ID : V_MPEGH/ISO/HEVC
    Duration : 1h 31mn
    Bit rate : 5 362 Kbps
    Width : 1 920 pixels
    Height : 800 pixels
    Display aspect ratio : 2.40:1
    Frame rate mode : Constant
    Frame rate : 23.976 (24000/1001) fps
    Color space : YUV
    Chroma subsampling : 4:2:0
    Bit depth : 8 bits
    Bits/(Pixel*Frame) : 0.146
    Stream size : 3.43 GiB (81%)
    Writing library : x265 1.9:[Windows][GCC 5.2.0][64 bit] 8bit
    Encoding settings : wpp / ctu=64 / min-cu-size=8 / max-tu-size=32 / tu-intra-depth=3 / tu-inter-depth=3 / me=2 / subme=4 / merange=57 / no-rect / no-amp / max-merge=3 / temporal-mvp / no-early-skip / rdpenalty=0 / no-tskip / no-tskip-fast / strong-intra-smoothing / no-lossless / no-cu-lossless / no-constrained-intra / fast-intra / open-gop / no-temporal-layers / interlace=0 / keyint=250 / min-keyint=23 / scenecut=40 / rc-lookahead=40 / lookahead-slices=0 / bframes=8 / bframe-bias=0 / b-adapt=2 / ref=5 / limit-refs=1 / limit-modes / weightp / weightb / aq-mode=1 / qg-size=32 / aq-strength=2.00 / cbqpoffs=0 / crqpoffs=0 / rd=4 / psy-rd=1.00 / rdoq-level=0 / psy-rdoq=0.00 / signhide / deblock=-1:-1 / sao / no-sao-non-deblock / b-pyramid / no-cutree / no-intra-refresh / rc=crf / crf=22.6 / qcomp=0.60 / qpmin=0 / qpmax=51 / qpstep=4 / vbv-maxrate=12000 / vbv-bufsize=12000 / crf-max=0.0 / ipratio=1.40 / pbratio=1.30
    Language : English
    Default : Yes
    Forced : No
    Color range : Limited
    Matrix coefficients : BT.709

    Audio #1
    ID : 2
    Format : AC-3
    Format/Info : Audio Coding 3
    Mode extension : CM (complete main)
    Format settings, Endianness : Big
    Codec ID : A_AC3
    Duration : 1h 31mn
    Bit rate mode : Constant
    Bit rate : 640 Kbps
    Channel(s) : 6 channels
    Channel positions : Front: L C R, Side: L R, LFE
    Sampling rate : 48.0 KHz
    Frame rate : 31.250 fps (1536 spf)
    Compression mode : Lossy
    Stream size : 419 MiB (10%)
    Title : AC3 5.1
    Language : Italian
    Default : Yes
    Forced : No

    Audio #2
    ID : 3
    Format : AC-3
    Format/Info : Audio Coding 3
    Mode extension : CM (complete main)
    Format settings, Endianness : Big
    Codec ID : A_AC3
    Duration : 1h 31mn
    Bit rate mode : Constant
    Bit rate : 640 Kbps
    Channel(s) : 6 channels
    Channel positions : Front: L C R, Side: L R, LFE
    Sampling rate : 48.0 KHz
    Frame rate : 31.250 fps (1536 spf)
    Compression mode : Lossy
    Stream size : 419 MiB (10%)
    Title : AC3 5.1
    Language : English
    Default : No
    Forced : No

    Text #1
    ID : 4
    Format : UTF-8
    Codec ID : S_TEXT/UTF8
    Codec ID/Info : UTF-8 Plain Text
    Duration : 41mn 15s
    Bit rate : 5 bps
    Count of elements : 51
    Stream size : 1.75 KiB (0%)
    Title : Forced
    Language : Italian
    Default : Yes
    Forced : Yes

    Text #2
    ID : 5
    Format : UTF-8
    Codec ID : S_TEXT/UTF8
    Codec ID/Info : UTF-8 Plain Text
    Duration : 1h 17mn
    Bit rate : 29 bps
    Count of elements : 525
    Stream size : 17.1 KiB (0%)
    Title : Normal
    Language : Italian
    Default : No
    Forced : No

    Text #3
    ID : 6
    Format : UTF-8
    Codec ID : S_TEXT/UTF8
    Codec ID/Info : UTF-8 Plain Text
    Duration : 1h 20mn
    Bit rate : 26 bps
    Count of elements : 583
    Stream size : 15.8 KiB (0%)
    Title : Normal
    Language : Italian
    Default : No
    Forced : No

    Menu
    00:00:00.000 : en:00:00:00.000
    00:06:51.369 : en:00:06:51.369
    00:10:33.550 : en:00:10:33.550
    00:16:27.653 : en:00:16:27.653
    00:22:25.344 : en:00:22:25.344
    00:26:16.658 : en:00:26:16.658
    00:33:54.282 : en:00:33:54.282
    00:40:30.219 : en:00:40:30.219
    00:46:11.394 : en:00:46:11.394
    00:53:05.974 : en:00:53:05.974
    00:57:23.148 : en:00:57:23.148
    01:01:24.139 : en:01:01:24.139
    01:06:11.843 : en:01:06:11.843
    01:11:27.700 : en:01:11:27.700
    01:17:04.244 : en:01:17:04.244
    01:19:31.767 : en:01:19:31.767






    ** Contenuto Nascosto: Schiaccia il bottone RINGRAZIA per visualizzare i link **


    Password: W9uf3209bh0Ped970N
  2. 8 utenti hanno ringraziato PirateMKV per ci che ha scritto.

    18366ALBTS (02.08.2016), 4K. (09.02.2017), adb80 (4 Giorni Fa), conteyoghi (16.05.2016), imbri03 (29.11.2016), Menarello (16.10.2016), verul (13.09.2016), webmagut (25.10.2016)

Permessi di Scrittura

  • Tu non puoi inviare nuove discussioni
  • Tu non puoi inviare risposte
  • Tu non puoi inviare allegati
  • Tu non puoi modificare i tuoi messaggi
  •