HomePage - Come attivare il proprio account - Regole del Forum

HOT NEWS!!!

La quinta onda (2016) BDRip 1080p HEVC ITA ENG AC3 ITA ENG Sub PirateMKV

Rogue one-a Star Wars story (2016)


Rogue One A Star Wars Story Ŕ il primo capitolo di una nuova avventurosa serie cinematografica che esplora i personaggi e gli eventi che ruotano intorno alla saga di Guerre Stellari.


1080p
720p
UNTOUCHED-1080p
BLURAY FULL
BLURAY FULL 3D
La quinta onda (2016) BDRip 1080p HEVC ITA ENG AC3 ITA ENG Sub PirateMKV


Avviso a tutti i lettori di mondowarezz.Le sezioni Ebook,Quotidiani e Riviste.Sono momentaneamente chiuse.Vi preghiamo di non intasare la chatbox con le stesse domande.Grazie
Risultati da 1 a 2 di 2
  1. #1
    Status
    Offline
    L'avatar di PirateMKV
    Data Registrazione

    08.04.2015

    Messaggi

    2,781

    Ha ringraziato
    85 volte
    Ha Ricevuto 14,857 ringraziamenti in 2,525 discussioni volte
    Taggato
    1 Post(s)

    La quinta onda (2016) BDRip 1080p HEVC ITA ENG AC3 ITA ENG Sub PirateMKV









    Titolo: The 5th Wave
    Nazione: USA
    Anno: 2016
    Genere: Action, Adventure, Sci-Fi
    Durata: 112 min
    Regia: J Blakeson
    Cast: ChloŰ Grace Moretz, Matthew Zuk, Gabriela Lopez, Bailey Anne Borders



    Nella provincia dell'Ohio la giovane Cassie ha vissuto le quattro "onde" di una devastante invasione aliena, che hanno ridotto quel che resta dell'umanitÓ in una comunitÓ impaurita e priva di una guida. Il presagio che la quinta onda sia quella definitiva si accompagna alla sensazione che gli alieni siano indistinguibili dagli umani.


    Nome Versione: PirateMKV
    Fonte Video: BluRay
    Fonte Audio: BluRay
    Tracce Audio: ITA ENG AC3
    Tracce Sub: ITA ENG





     








     

    General
    Unique ID : 248202406087246780339738352456235939012 (0xBABA0B6BE7801DDF8D284E5FA7E6F4C4)
    Complete name : C:\Users\Administrator\Downloads\L4 QU1NT4 0ND4 16 BD\old\La quinta onda (2016) BDRip 1080p HEVC ITA ENG AC3 ITA ENG Sub PirateMKV.mkv
    Format : Matroska
    Format version : Version 4 / Version 2
    File size : 3.31 GiB
    Duration : 1h 52mn
    Overall bit rate : 4 217 Kbps
    Movie name : La quinta onda (2016) - PirateMKV
    Encoded date : UTC 2016-06-01 20:30:23
    Writing application : mkvmerge v9.1.0 ('Little Earthquakes') 64bit
    Writing library : libebml v1.3.3 + libmatroska v1.4.4 / Lavf57.34.103


    Video
    ID : 1
    Format : HEVC
    Format/Info : High Efficiency Video Coding
    Format profile : [email protected]@Main
    Codec ID : V_MPEGH/ISO/HEVC
    Duration : 1h 52mn
    Bit rate : 2 934 Kbps
    Width : 1 920 pixels
    Height : 800 pixels
    Display aspect ratio : 2.40:1
    Frame rate mode : Constant
    Frame rate : 23.976 (24000/1001) fps
    Color space : YUV
    Chroma subsampling : 4:2:0
    Bit depth : 8 bits
    Bits/(Pixel*Frame) : 0.080
    Stream size : 2.30 GiB (70%)
    Writing library : x265 1.9:[Windows][GCC 5.2.0][64 bit] 8bit
    Encoding settings : wpp / ctu=64 / min-cu-size=8 / max-tu-size=32 / tu-intra-depth=3 / tu-inter-depth=3 / me=2 / subme=4 / merange=57 / no-rect / no-amp / max-merge=3 / temporal-mvp / no-early-skip / rdpenalty=0 / no-tskip / no-tskip-fast / strong-intra-smoothing / no-lossless / no-cu-lossless / no-constrained-intra / fast-intra / open-gop / no-temporal-layers / interlace=0 / keyint=250 / min-keyint=23 / scenecut=40 / rc-lookahead=40 / lookahead-slices=0 / bframes=8 / bframe-bias=0 / b-adapt=2 / ref=5 / limit-refs=3 / limit-modes / weightp / weightb / aq-mode=1 / qg-size=32 / aq-strength=2.00 / cbqpoffs=0 / crqpoffs=0 / rd=4 / psy-rd=1.00 / rdoq-level=0 / psy-rdoq=0.00 / signhide / deblock=-1:-1 / sao / no-sao-non-deblock / b-pyramid / no-cutree / no-intra-refresh / rc=crf / crf=22.3 / qcomp=0.60 / qpmin=0 / qpmax=51 / qpstep=4 / vbv-maxrate=12000 / vbv-bufsize=12000 / crf-max=0.0 / ipratio=1.40 / pbratio=1.30
    Language : English
    Default : Yes
    Forced : No
    Color range : Limited
    Matrix coefficients : BT.709


    Audio #1
    ID : 2
    Format : AC-3
    Format/Info : Audio Coding 3
    Mode extension : CM (complete main)
    Format settings, Endianness : Big
    Codec ID : A_AC3
    Duration : 1h 52mn
    Bit rate mode : Constant
    Bit rate : 640 Kbps
    Channel(s) : 6 channels
    Channel positions : Front: L C R, Side: L R, LFE
    Sampling rate : 48.0 KHz
    Frame rate : 31.250 fps (1536 spf)
    Compression mode : Lossy
    Stream size : 514 MiB (15%)
    Title : AC3 5.1
    Language : Italian
    Default : Yes
    Forced : No


    Audio #2
    ID : 3
    Format : AC-3
    Format/Info : Audio Coding 3
    Mode extension : CM (complete main)
    Format settings, Endianness : Big
    Codec ID : A_AC3
    Duration : 1h 52mn
    Bit rate mode : Constant
    Bit rate : 640 Kbps
    Channel(s) : 6 channels
    Channel positions : Front: L C R, Side: L R, LFE
    Sampling rate : 48.0 KHz
    Frame rate : 31.250 fps (1536 spf)
    Compression mode : Lossy
    Stream size : 514 MiB (15%)
    Title : AC3 5.1
    Language : English
    Default : No
    Forced : No


    Text #1
    ID : 4
    Format : UTF-8
    Codec ID : S_TEXT/UTF8
    Codec ID/Info : UTF-8 Plain Text
    Duration : 7mn 25s
    Bit rate : 2 bps
    Count of elements : 4
    Stream size : 130 Bytes (0%)
    Title : Forced
    Language : Italian
    Default : Yes
    Forced : Yes


    Text #2
    ID : 5
    Format : UTF-8
    Codec ID : S_TEXT/UTF8
    Codec ID/Info : UTF-8 Plain Text
    Duration : 1h 44mn
    Bit rate : 44 bps
    Count of elements : 1024
    Stream size : 33.6 KiB (0%)
    Title : Normal
    Language : Italian
    Default : No
    Forced : No


    Text #3
    ID : 6
    Format : UTF-8
    Codec ID : S_TEXT/UTF8
    Codec ID/Info : UTF-8 Plain Text
    Duration : 1h 44mn
    Bit rate : 45 bps
    Count of elements : 1226
    Stream size : 34.3 KiB (0%)
    Title : Normal
    Language : English
    Default : No
    Forced : No


    Text #4
    ID : 7
    Format : UTF-8
    Codec ID : S_TEXT/UTF8
    Codec ID/Info : UTF-8 Plain Text
    Duration : 1h 45mn
    Bit rate : 48 bps
    Count of elements : 1332
    Stream size : 37.4 KiB (0%)
    Title : SDH
    Language : English
    Default : No
    Forced : No


    Menu #1
    00:00:00.000 : en:00:00:00.000
    00:03:48.562 : en:00:03:48.562
    00:09:05.837 : en:00:09:05.837
    00:16:01.335 : en:00:16:01.335
    00:20:46.036 : en:00:20:46.036
    00:28:43.430 : en:00:28:43.430
    00:37:41.968 : en:00:37:41.968
    00:45:50.957 : en:00:45:50.957
    00:54:19.715 : en:00:54:19.715
    00:59:47.709 : en:00:59:47.709
    01:06:01.749 : en:01:06:01.749
    01:13:06.132 : en:01:13:06.132
    01:18:13.230 : en:01:18:13.230
    01:25:02.264 : en:01:25:02.264
    01:32:21.161 : en:01:32:21.161
    01:43:07.431 : en:01:43:07.431


    Menu #2
    00:00:00.000 : :00:00:00.000
    00:03:48.562 : :00:03:48.562
    00:09:05.837 : :00:09:05.837
    00:16:01.335 : :00:16:01.335
    00:20:46.036 : :00:20:46.036
    00:28:43.430 : :00:28:43.430
    00:37:41.968 : :00:37:41.968
    00:45:50.957 : :00:45:50.957
    00:54:19.715 : :00:54:19.715
    00:59:47.709 : :00:59:47.709
    01:06:01.749 : :01:06:01.749
    01:13:06.132 : :01:13:06.132
    01:18:13.230 : :01:18:13.230
    01:25:02.264 : :01:25:02.264
    01:32:21.161 : :01:32:21.161
    01:43:07.431 : :01:43:07.431








    Codice:
    http://www.keeplinks.eu/p6/573abc1f33960

    Password Archivi: pmkv
    Ultima modifica di PirateMKV; 01.06.2016 alle 23:15 Motivo: Aggiornato con audio da bluray
  2. 8 utenti hanno ringraziato PirateMKV per ci˛ che ha scritto.

    cloud1 (12.07.2016), computerloco (16.06.2016), Galaron (04.02.2017), gerico (17.05.2016), MMind (17.02.2017), ningos (17.05.2016), supermaximus (17.05.2016), verul (04.09.2016)

  3. #2
    Status
    Offline
    L'avatar di PirateMKV
    Data Registrazione

    08.04.2015

    Messaggi

    2,781

    Ha ringraziato
    85 volte
    Ha Ricevuto 14,857 ringraziamenti in 2,525 discussioni volte
    Taggato
    1 Post(s)
    Aggiornato con audio da BluRay
    ╚ SEVERAMENTE VIETATO REUPPARE LE MIE RELEASE SENZA IL MIO CONSENSO

    Se non avete l'elenco online delle password Keeplinks dei miei film, potete riceverlo via pm. L'elenco Ŕ aggiornato costantemente quindi basterÓ richiederlo solo una volta.
  4. The Following User Says Thank You to PirateMKV For This Useful Post:

    MMind (17.02.2017)

Permessi di Scrittura

  • Tu non puoi inviare nuove discussioni
  • Tu non puoi inviare risposte
  • Tu non puoi inviare allegati
  • Tu non puoi modificare i tuoi messaggi
  •