HomePage - Come attivare il proprio account - Regole del Forum

HOT NEWS!!!

La storia della Principessa Splendente (2013) BDRip 1080p HEVC ITA JAP AC3 ITA Sub PirateMKV

Rogue one-a Star Wars story (2016)


Rogue One A Star Wars Story Ŕ il primo capitolo di una nuova avventurosa serie cinematografica che esplora i personaggi e gli eventi che ruotano intorno alla saga di Guerre Stellari.


1080p
720p
UNTOUCHED-1080p
BLURAY FULL
BLURAY FULL 3D
La storia della Principessa Splendente (2013) BDRip 1080p HEVC ITA JAP AC3 ITA Sub PirateMKV


Avviso a tutti i lettori di mondowarezz.Le sezioni Ebook,Quotidiani e Riviste.Sono momentaneamente chiuse.Vi preghiamo di non intasare la chatbox con le stesse domande.Grazie
Risultati da 1 a 1 di 1
  1. #1
    Status
    Offline
    L'avatar di PirateMKV
    Data Registrazione

    08.04.2015

    Messaggi

    2,781

    Ha ringraziato
    85 volte
    Ha Ricevuto 14,447 ringraziamenti in 2,507 discussioni volte
    Taggato
    1 Post(s)

    La storia della Principessa Splendente (2013) BDRip 1080p HEVC ITA JAP AC3 ITA Sub PirateMKV






    Titolo: The Tale of the Princess Kaguya
    Nazione: Japan
    Anno: 2013
    Genere: Animation, Drama, Fantasy
    Durata: 137 min
    Regia: Isao Takahata
    Cast: ChloŰ Grace Moretz, James Caan, Mary Steenburgen, Darren Criss


    Il film Ŕ la trasposizione cinematografica di Taketori Monogatari, la storia del taglia bamb¨. Narra di un contadino che, mentre tagliava del bamb¨, all'interno di uno dei fusti trova una piccola bambina, grande quanto un pollice. L'uomo, senza figli, la prende e la porta a casa da sua moglie, ed insieme decidono di allevarla come bambina propria. Ma crescendo, la piccola Kaguya si troverÓ a scoprire la sua vera identitÓ, quella di non essere una persona qualunque ma una principessa...

    Nome Versione: PirateMKV
    Fonte Video: BluRay
    Fonte Audio: BluRay



     






     

    General
    Unique ID : 239365862933071803278027965074633787933 (0xB4143034FF8E6559804570AE19220A1D)
    Complete name : C:\Users\Administrator\Downloads\********************nime\La storia della Principessa Splendente (2013) BDRip 1080p HEVC ITA JAP AC3 ITA Sub PirateMKV.mkv
    Format : Matroska
    Format version : Version 4 / Version 2
    File size : 3.50 GiB
    Duration : 2h 17mn
    Overall bit rate : 3 652 Kbps
    Movie name : La storia della Principessa Splendente (2013) - PirateMKV
    Encoded date : UTC 2016-05-12 08:55:44
    Writing application : mkvmerge v9.1.0 ('Little Earthquakes') 64bit
    Writing library : libebml v1.3.3 libmatroska v1.4.4 / Lavf57.36.100

    Video
    ID : 1
    Format : HEVC
    Format/Info : High Efficiency Video Coding
    Format profile : [email protected]@Main
    Codec ID : V_MPEGH/ISO/HEVC
    Duration : 2h 17mn
    Bit rate : 2 370 Kbps
    Width : 1 920 pixels
    Height : 1 038 pixels
    Display aspect ratio : 1.85:1
    Frame rate mode : Constant
    Frame rate : 24.000 fps
    Color space : YUV
    Chroma subsampling : 4:2:0
    Bit depth : 8 bits
    Bits/(Pixel*Frame) : 0.050
    Stream size : 2.27 GiB (65%)
    Writing library : x265 1.9:[Windows][GCC 5.2.0][64 bit] 8bit
    Encoding settings : wpp / ctu=64 / min-cu-size=8 / max-tu-size=32 / tu-intra-depth=3 / tu-inter-depth=3 / me=2 / subme=4 / merange=57 / no-rect / no-amp / max-merge=3 / temporal-mvp / no-early-skip / rdpenalty=0 / no-tskip / no-tskip-fast / strong-intra-smoothing / no-lossless / no-cu-lossless / no-constrained-intra / fast-intra / open-gop / no-temporal-layers / interlace=0 / keyint=250 / min-keyint=24 / scenecut=40 / rc-lookahead=40 / lookahead-slices=0 / bframes=8 / bframe-bias=0 / b-adapt=2 / ref=4 / limit-refs=3 / limit-modes / weightp / weightb / aq-mode=1 / qg-size=32 / aq-strength=2.00 / cbqpoffs=0 / crqpoffs=0 / rd=4 / psy-rd=1.00 / rdoq-level=0 / psy-rdoq=0.00 / signhide / deblock=-1:-1 / sao / no-sao-non-deblock / b-pyramid / no-cutree / no-intra-refresh / rc=crf / crf=21.5 / qcomp=0.60 / qpmin=0 / qpmax=51 / qpstep=4 / vbv-maxrate=12000 / vbv-bufsize=12000 / crf-max=0.0 / ipratio=1.40 / pbratio=1.30
    Language : English
    Default : Yes
    Forced : No
    Color range : Limited
    Matrix coefficients : BT.709

    Audio #1
    ID : 2
    Format : AC-3
    Format/Info : Audio Coding 3
    Mode extension : CM (complete main)
    Format settings, Endianness : Big
    Codec ID : A_AC3
    Duration : 2h 17mn
    Bit rate mode : Constant
    Bit rate : 640 Kbps
    Channel(s) : 6 channels
    Channel positions : Front: L C R, Side: L R, LFE
    Sampling rate : 48.0 KHz
    Frame rate : 31.250 fps (1536 spf)
    Compression mode : Lossy
    Stream size : 627 MiB (18%)
    Title : AC3 5.1
    Language : Italian
    Default : Yes
    Forced : No

    Audio #2
    ID : 3
    Format : AC-3
    Format/Info : Audio Coding 3
    Mode extension : CM (complete main)
    Format settings, Endianness : Big
    Codec ID : A_AC3
    Duration : 2h 17mn
    Bit rate mode : Constant
    Bit rate : 640 Kbps
    Channel(s) : 6 channels
    Channel positions : Front: L C R, Side: L R, LFE
    Sampling rate : 48.0 KHz
    Frame rate : 31.250 fps (1536 spf)
    Compression mode : Lossy
    Stream size : 627 MiB (18%)
    Title : AC3 5.1
    Language : Japanese
    Default : No
    Forced : No

    Text #1
    ID : 4
    Format : UTF-8
    Codec ID : S_TEXT/UTF8
    Codec ID/Info : UTF-8 Plain Text
    Duration : 2h 16mn
    Bit rate : 3 bps
    Count of elements : 93
    Stream size : 3.96 KiB (0%)
    Title : Forced
    Language : Italian
    Default : Yes
    Forced : Yes

    Text #2
    ID : 5
    Format : UTF-8
    Codec ID : S_TEXT/UTF8
    Codec ID/Info : UTF-8 Plain Text
    Duration : 2h 16mn
    Bit rate : 58 bps
    Count of elements : 1652
    Stream size : 58.8 KiB (0%)
    Title : Normal
    Language : Italian
    Default : No
    Forced : No

    Text #3
    ID : 6
    Format : UTF-8
    Codec ID : S_TEXT/UTF8
    Codec ID/Info : UTF-8 Plain Text
    Duration : 2h 16mn
    Bit rate : 66 bps
    Count of elements : 1855
    Stream size : 66.5 KiB (0%)
    Title : SDH
    Language : Italian
    Default : No
    Forced : No

    Menu
    00:00:00.000 : en:00:00:00.000
    00:12:18.417 : en:00:12:18.417
    00:21:42.917 : en:00:21:42.917
    00:31:59.625 : en:00:31:59.625
    00:43:45.625 : en:00:43:45.625
    00:56:07.833 : en:00:56:07.833
    01:05:44.000 : en:01:05:44.000
    01:17:42.208 : en:01:17:42.208
    01:26:29.833 : en:01:26:29.833
    01:38:10.833 : en:01:38:10.833
    01:50:19.833 : en:01:50:19.833
    02:02:57.417 : en:02:02:57.417






    ** Contenuto Nascosto: Schiaccia il bottone RINGRAZIA per visualizzare i link **


    Password: W9uf3209bh0Ped970N
  2. 3 utenti hanno ringraziato PirateMKV per ci˛ che ha scritto.

    Menarello (16.10.2016), silverbird (04.10.2016), VITTORIOO (4 Ore Fa)

Permessi di Scrittura

  • Tu non puoi inviare nuove discussioni
  • Tu non puoi inviare risposte
  • Tu non puoi inviare allegati
  • Tu non puoi modificare i tuoi messaggi
  •