HomePage - Come attivare il proprio account - Regole del Forum

HOT NEWS!!!

L'abbiamo fatta grossa (2016) BDRip 720p HEVC ITA AC3 ITA Sub PirateMKV

Rogue one-a Star Wars story (2016)


Rogue One A Star Wars Story è il primo capitolo di una nuova avventurosa serie cinematografica che esplora i personaggi e gli eventi che ruotano intorno alla saga di Guerre Stellari.


1080p
720p
UNTOUCHED-1080p
BLURAY FULL
BLURAY FULL 3D
L'abbiamo fatta grossa (2016) BDRip 720p HEVC ITA AC3 ITA Sub PirateMKV


Avviso a tutti i lettori di mondowarezz.Le sezioni Ebook,Quotidiani e Riviste.Sono momentaneamente chiuse.Vi preghiamo di non intasare la chatbox con le stesse domande.Grazie
Risultati da 1 a 1 di 1
  1. #1
    Status
    Offline
    L'avatar di PirateMKV
    Data Registrazione

    08.04.2015

    Messaggi

    2,781

    Ha ringraziato
    85 volte
    Ha Ricevuto 14,338 ringraziamenti in 2,505 discussioni volte
    Taggato
    1 Post(s)

    L'abbiamo fatta grossa (2016) BDRip 720p HEVC ITA AC3 ITA Sub PirateMKV






    Titolo: L'abbiamo fatta grossa
    Nazione: Italy
    Anno: 2016
    Genere: Comedy
    Durata: 0 min
    Regia: Carlo Verdone
    Cast: Simona Caparrini, Carlo Verdone, Antonio Albanese, Massimo Popolizio


    Arturo è un investigatore privato così male in arnese da inseguire i gatti scappati dalle case altrui e da abitare presso una vecchia zia col mito del marito defunto. Yuri è un attore di teatro che, da quando la moglie l'ha lasciato, non ricorda più le battute: dunque si ritrova disoccupato e senza un soldo. Le strade di Arturo e Yuri si incontrano quando l'attore chiede all'investigatore privato di pedinare per lui l'ex moglie e il suo nuovo compagno. Ma quando i due macapitati, invece di registrare una conversazione fra i due innamorati, intercettano un dialogo ambiguo e fuorviante le cose si ingarbugliano e si innesca un gioco degli equivoci che costringerà la "strana coppia" Arturo-Yuri a rocambolesche avventure e improbabili travestimenti.

    Nome Versione: PirateMKV
    Fonte Video: BluRay
    Fonte Audio: BluRay



     






     

    General
    Unique ID : 205688237812071803109757518267408731399 (0x9ABE1D179476620B9FF200A624384D07)
    Complete name : C:\Users\Administrator\Downloads\abbiamo.fatta.gro ssa\L'abbiamo fatta grossa (2016) BDRip 720p HEVC ITA AC3 ITA Sub PirateMKV.mkv
    Format : Matroska
    Format version : Version 4 / Version 2
    File size : 2.13 GiB
    Duration : 1h 53mn
    Overall bit rate : 2 696 Kbps
    Movie name : L'abbiamo fatta grossa (2016) - PirateMKV
    Encoded date : UTC 2016-05-14 16:05:34
    Writing application : mkvmerge v9.1.0 ('Little Earthquakes') 64bit
    Writing library : libebml v1.3.3 libmatroska v1.4.4 / Lavf57.36.100

    Video
    ID : 1
    Format : HEVC
    Format/Info : High Efficiency Video Coding
    Format profile : [email protected]@Main
    Codec ID : V_MPEGH/ISO/HEVC
    Duration : 1h 53mn
    Bit rate : 2 055 Kbps
    Width : 1 280 pixels
    Height : 534 pixels
    Display aspect ratio : 2.40:1
    Original display aspect ratio : 2.40:1
    Frame rate mode : Constant
    Frame rate : 23.976 (24000/1001) fps
    Color space : YUV
    Chroma subsampling : 4:2:0
    Bit depth : 8 bits
    Bits/(Pixel*Frame) : 0.125
    Stream size : 1.62 GiB (76%)
    Writing library : x265 1.9:[Windows][GCC 5.2.0][64 bit] 8bit
    Encoding settings : wpp / ctu=64 / min-cu-size=8 / max-tu-size=32 / tu-intra-depth=3 / tu-inter-depth=3 / me=2 / subme=4 / merange=57 / no-rect / no-amp / max-merge=3 / temporal-mvp / no-early-skip / rdpenalty=0 / no-tskip / no-tskip-fast / strong-intra-smoothing / no-lossless / no-cu-lossless / no-constrained-intra / fast-intra / open-gop / no-temporal-layers / interlace=0 / keyint=250 / min-keyint=23 / scenecut=40 / rc-lookahead=40 / lookahead-slices=0 / bframes=8 / bframe-bias=0 / b-adapt=2 / ref=5 / limit-refs=3 / limit-modes / weightp / weightb / aq-mode=1 / qg-size=32 / aq-strength=2.00 / cbqpoffs=0 / crqpoffs=0 / rd=4 / psy-rd=1.00 / rdoq-level=0 / psy-rdoq=0.00 / signhide / deblock=-1:-1 / sao / no-sao-non-deblock / b-pyramid / no-cutree / no-intra-refresh / rc=crf / crf=20.9 / qcomp=0.60 / qpmin=0 / qpmax=51 / qpstep=4 / vbv-maxrate=12000 / vbv-bufsize=12000 / crf-max=0.0 / ipratio=1.40 / pbratio=1.30
    Language : English
    Default : Yes
    Forced : No
    Color range : Limited
    Matrix coefficients : BT.709

    Audio
    ID : 2
    Format : AC-3
    Format/Info : Audio Coding 3
    Mode extension : CM (complete main)
    Format settings, Endianness : Big
    Codec ID : A_AC3
    Duration : 1h 53mn
    Bit rate mode : Constant
    Bit rate : 640 Kbps
    Channel(s) : 6 channels
    Channel positions : Front: L C R, Side: L R, LFE
    Sampling rate : 48.0 KHz
    Frame rate : 31.250 fps (1536 spf)
    Compression mode : Lossy
    Stream size : 517 MiB (24%)
    Title : AC3 5.1
    Language : Italian
    Default : Yes
    Forced : No

    Text
    ID : 3
    Format : UTF-8
    Codec ID : S_TEXT/UTF8
    Codec ID/Info : UTF-8 Plain Text
    Duration : 1h 47mn
    Bit rate : 80 bps
    Count of elements : 1640
    Stream size : 63.2 KiB (0%)
    Title : Normal
    Language : Italian
    Default : No
    Forced : No

    Menu
    00:00:00.000 : en:00:00:00.000
    00:04:55.462 : en:00:04:55.462
    00:10:29.337 : en:00:10:29.337
    00:20:06.664 : en:00:20:06.664
    00:25:44.293 : en:00:25:44.293
    00:41:46.462 : en:00:41:46.462
    00:51:16.240 : en:00:51:16.240
    01:04:17.687 : en:01:04:17.687
    01:17:05.120 : en:01:17:05.120
    01:27:53.059 : en:01:27:53.059
    01:38:26.567 : en:01:38:26.567
    01:44:59.752 : en:01:44:59.752






    ** Contenuto Nascosto: Schiaccia il bottone RINGRAZIA per visualizzare i link **


    Password: W9uf3209bh0Ped970N
  2. 2 utenti hanno ringraziato PirateMKV per ciò che ha scritto.

    blohack (31.05.2016), spinter (1 Settimana Fa)

Permessi di Scrittura

  • Tu non puoi inviare nuove discussioni
  • Tu non puoi inviare risposte
  • Tu non puoi inviare allegati
  • Tu non puoi modificare i tuoi messaggi
  •