HomePage - Come attivare il proprio account - Regole del Forum

HOT NEWS!!!

L'era glaciale 2 - Il disgelo (2006) BDRip 720p HEVC ITA ENG AC3 ENG ITA Sub PirateMKV

Rogue one-a Star Wars story (2016)


Rogue One A Star Wars Story il primo capitolo di una nuova avventurosa serie cinematografica che esplora i personaggi e gli eventi che ruotano intorno alla saga di Guerre Stellari.


1080p
720p
UNTOUCHED-1080p
BLURAY FULL
BLURAY FULL 3D
L'era glaciale 2 - Il disgelo (2006) BDRip 720p HEVC ITA ENG AC3 ENG ITA Sub PirateMKV


Avviso a tutti i lettori di mondowarezz.Le sezioni Ebook,Quotidiani e Riviste.Sono momentaneamente chiuse.Vi preghiamo di non intasare la chatbox con le stesse domande.Grazie
Risultati da 1 a 1 di 1
  1. #1
    Status
    Offline
    L'avatar di PirateMKV
    Data Registrazione

    08.04.2015

    Messaggi

    2,781

    Ha ringraziato
    85 volte
    Ha Ricevuto 14,610 ringraziamenti in 2,512 discussioni volte
    Taggato
    1 Post(s)

    L'era glaciale 2 - Il disgelo (2006) BDRip 720p HEVC ITA ENG AC3 ENG ITA Sub PirateMKV






    Titolo: Ice Age: The Meltdown
    Nazione: USA
    Anno: 2006
    Genere: Animation, Action, Adventure
    Durata: 91 min
    Regia: Carlos Saldanha
    Cast: Ray Romano, John Leguizamo, Denis Leary, Seann William Scott


    arrivato il momento dello scioglimento dei ghiacci e il gruppo ormai affiatato (nonostante le differenze) composto da Manny (il mammuth) Diego (la tigre con i denti a sciabola) e Sid (il bradipo) deve nuovamente mettersi in marcia alla ricerca di un luogo abitabile. Ma questa volta c' un problema in pi: il cuore malinconico di Manny sembra destinato a battere pi velocemente dopo l'incontro con Ellie, una mammuth che crede di essere un opossum... mentre a Diego e a Sid non mancheranno occasioni per accrescere la loro autostima.

    Nome Versione: PirateMKV
    Fonte Video: BluRay
    Fonte Audio: BluRay



     






     

    General
    Unique ID : 200404466586874303337842123548038183082 (0x96C47F0EC0BD741EA29335FCCDD2B8AA)
    Complete name : C:\Users\Administrator\Downloads\Ice_Age\2\L'era glaciale 2 - Il disgelo (2006) BDRip 720p HEVC ITA ENG AC3 ENG ITA Sub PirateMKV.mkv
    Format : Matroska
    Format version : Version 4 / Version 2
    File size : 2.29 GiB
    Duration : 1h 30mn
    Overall bit rate : 3 617 Kbps
    Movie name : L'era glaciale 2 - Il disgelo (2006) - PirateMKV
    Encoded date : UTC 2016-05-14 13:07:10
    Writing application : mkvmerge v9.1.0 ('Little Earthquakes') 64bit
    Writing library : libebml v1.3.3 libmatroska v1.4.4 / Lavf57.36.100

    Video
    ID : 1
    Format : HEVC
    Format/Info : High Efficiency Video Coding
    Format profile : [email protected]@Main
    Codec ID : V_MPEGH/ISO/HEVC
    Duration : 1h 30mn
    Bit rate : 2 527 Kbps
    Width : 1 280 pixels
    Height : 694 pixels
    Display aspect ratio : 1.85:1
    Frame rate mode : Constant
    Frame rate : 23.976 (24000/1001) fps
    Color space : YUV
    Chroma subsampling : 4:2:0
    Bit depth : 8 bits
    Bits/(Pixel*Frame) : 0.119
    Stream size : 1.60 GiB (70%)
    Writing library : x265 1.9:[Windows][GCC 5.2.0][64 bit] 8bit
    Encoding settings : wpp / ctu=64 / min-cu-size=8 / max-tu-size=32 / tu-intra-depth=3 / tu-inter-depth=3 / me=2 / subme=4 / merange=57 / no-rect / no-amp / max-merge=3 / temporal-mvp / no-early-skip / rdpenalty=0 / no-tskip / no-tskip-fast / strong-intra-smoothing / no-lossless / no-cu-lossless / no-constrained-intra / fast-intra / open-gop / no-temporal-layers / interlace=0 / keyint=250 / min-keyint=23 / scenecut=40 / rc-lookahead=40 / lookahead-slices=0 / bframes=8 / bframe-bias=0 / b-adapt=2 / ref=5 / limit-refs=1 / limit-modes / weightp / weightb / aq-mode=1 / qg-size=32 / aq-strength=2.00 / cbqpoffs=0 / crqpoffs=0 / rd=4 / psy-rd=1.00 / rdoq-level=0 / psy-rdoq=0.00 / signhide / deblock=-1:-1 / sao / no-sao-non-deblock / b-pyramid / no-cutree / no-intra-refresh / rc=crf / crf=20.5 / qcomp=0.60 / qpmin=0 / qpmax=51 / qpstep=4 / vbv-maxrate=12000 / vbv-bufsize=12000 / crf-max=0.0 / ipratio=1.40 / pbratio=1.30
    Language : English
    Default : Yes
    Forced : No
    Color range : Limited
    Matrix coefficients : BT.709

    Audio #1
    ID : 2
    Format : AC-3
    Format/Info : Audio Coding 3
    Mode extension : CM (complete main)
    Format settings, Endianness : Big
    Codec ID : A_AC3
    Duration : 1h 30mn
    Bit rate mode : Constant
    Bit rate : 448 Kbps
    Channel(s) : 6 channels
    Channel positions : Front: L C R, Side: L R, LFE
    Sampling rate : 48.0 KHz
    Frame rate : 31.250 fps (1536 spf)
    Compression mode : Lossy
    Stream size : 290 MiB (12%)
    Title : AC3 5.1
    Language : Italian
    Default : Yes
    Forced : No

    Audio #2
    ID : 3
    Format : AC-3
    Format/Info : Audio Coding 3
    Mode extension : CM (complete main)
    Format settings, Endianness : Big
    Codec ID : A_AC3
    Duration : 1h 30mn
    Bit rate mode : Constant
    Bit rate : 640 Kbps
    Channel(s) : 6 channels
    Channel positions : Front: L C R, Side: L R, LFE
    Sampling rate : 48.0 KHz
    Frame rate : 31.250 fps (1536 spf)
    Compression mode : Lossy
    Stream size : 415 MiB (18%)
    Title : AC3 5.1
    Language : English
    Default : No
    Forced : No

    Text #1
    ID : 4
    Format : UTF-8
    Codec ID : S_TEXT/UTF8
    Codec ID/Info : UTF-8 Plain Text
    Duration : 1h 20mn
    Bit rate : 0 bps
    Count of elements : 684
    Stream size : 0.00 Byte (0%)
    Title : Normal
    Language : English
    Default : No
    Forced : No

    Text #2
    ID : 5
    Format : UTF-8
    Codec ID : S_TEXT/UTF8
    Codec ID/Info : UTF-8 Plain Text
    Duration : 1h 20mn
    Bit rate : 44 bps
    Count of elements : 657
    Stream size : 26.3 KiB (0%)
    Title : Normal
    Language : Italian
    Default : No
    Forced : No

    Menu
    00:00:00.000 : en:00:00:00.000
    00:06:19.296 : en:00:06:19.296
    00:07:42.671 : en:00:07:42.671
    00:10:45.395 : en:00:10:45.395
    00:15:23.256 : en:00:15:23.256
    00:17:42.937 : en:00:17:42.937
    00:19:23.162 : en:00:19:23.162
    00:21:40.925 : en:00:21:40.925
    00:23:14.268 : en:00:23:14.268
    00:27:11.839 : en:00:27:11.839
    00:30:32.247 : en:00:30:32.247
    00:35:44.809 : en:00:35:44.809
    00:38:48.660 : en:00:38:48.660
    00:42:26.753 : en:00:42:26.753
    00:45:49.705 : en:00:45:49.705
    00:47:44.653 : en:00:47:44.653
    00:50:17.681 : en:00:50:17.681
    00:54:04.491 : en:00:54:04.491
    00:58:59.244 : en:00:58:59.244
    01:01:06.788 : en:01:01:06.788
    01:05:11.116 : en:01:05:11.116
    01:10:38.025 : en:01:10:38.025
    01:20:55.476 : en:01:20:55.476
    01:23:34.635 : en:01:23:34.635






    ** Contenuto Nascosto: Schiaccia il bottone RINGRAZIA per visualizzare i link **


    Password: W9uf3209bh0Ped970N
  2. 7 utenti hanno ringraziato PirateMKV per ci che ha scritto.

    Coby76 (03.02.2017), gambero20 (20.08.2016), gsteam (3 Settimane Fa), keijimaeda2013 (20.11.2016), Menarello (15.09.2016), nemo (4 Settimane Fa), xxxiceman (21.08.2016)

Permessi di Scrittura

  • Tu non puoi inviare nuove discussioni
  • Tu non puoi inviare risposte
  • Tu non puoi inviare allegati
  • Tu non puoi modificare i tuoi messaggi
  •