HomePage - Come attivare il proprio account - Regole del Forum

HOT NEWS!!!

L'era glaciale (2002) BDRip 720p HEVC ITA ENG AC3 ITA ENG Sub PirateMKV

Rogue one-a Star Wars story (2016)


Rogue One A Star Wars Story il primo capitolo di una nuova avventurosa serie cinematografica che esplora i personaggi e gli eventi che ruotano intorno alla saga di Guerre Stellari.


1080p
720p
UNTOUCHED-1080p
BLURAY FULL
BLURAY FULL 3D
L'era glaciale (2002) BDRip 720p HEVC ITA ENG AC3 ITA ENG Sub PirateMKV


Avviso a tutti i lettori di mondowarezz.Le sezioni Ebook,Quotidiani e Riviste.Sono momentaneamente chiuse.Vi preghiamo di non intasare la chatbox con le stesse domande.Grazie
Risultati da 1 a 1 di 1
  1. #1
    Status
    Offline
    L'avatar di PirateMKV
    Data Registrazione

    08.04.2015

    Messaggi

    2,781

    Ha ringraziato
    85 volte
    Ha Ricevuto 14,447 ringraziamenti in 2,507 discussioni volte
    Taggato
    1 Post(s)

    L'era glaciale (2002) BDRip 720p HEVC ITA ENG AC3 ITA ENG Sub PirateMKV






    Titolo: Ice Age
    Nazione: USA
    Anno: 2002
    Genere: Animation, Adventure, Comedy
    Durata: 81 min
    Regia: Chris Wedge, Carlos Saldanha
    Cast: Ray Romano, John Leguizamo, Denis Leary, Goran Visnjic


    Un tenero e divertente film d'animazione, che cerca d'insegnare l'importanza dello spirito di gruppo e della collaborazione attraverso le avventure di un'assortita combriccola di animali alle prese con la prima glaciazione. Manny (un mammouth), Sid (un bradipo logorroico) e Diego (una temibile tigre) dovranno infatti allearsi tra loro per portare in salvo un piccolo beb eschimese che si perso tra i ghiacci. Parallelamente seguiamo le peripezie dello scoiattolo pasticcione Scrat. Le avventure dei nostri eroi sono girate con le tecniche pi avanzate dell'animazione digitale tridimensionale, ma, pi che la tecnica, sar la fantasia ad ammaliare gli spettatori grandi e piccini. Il doppiaggio italiano si avvale delle voci di Bisio, Gullotta e Insegno.

    Nome Versione: PirateMKV
    Fonte Video: BluRay
    Fonte Audio: BluRay



     






     

    General
    Unique ID : 222288731131003324459466244381048570812 (0xA73B409A91229A2B9BBBAE4E94B803BC)
    Complete name : C:\Users\Administrator\Downloads\Ice_Age\1\L'era glaciale (2002) BDRip 720p HEVC ITA ENG AC3 ITA ENG Sub PirateMKV.mkv
    Format : Matroska
    Format version : Version 4 / Version 2
    File size : 1.95 GiB
    Duration : 1h 21mn
    Overall bit rate : 3 445 Kbps
    Movie name : L'era glaciale (2002) - PirateMKV
    Encoded date : UTC 2016-05-14 12:25:19
    Writing application : mkvmerge v9.1.0 ('Little Earthquakes') 64bit
    Writing library : libebml v1.3.3 libmatroska v1.4.4 / Lavf57.36.100

    Video
    ID : 1
    Format : HEVC
    Format/Info : High Efficiency Video Coding
    Format profile : [email protected]@Main
    Codec ID : V_MPEGH/ISO/HEVC
    Duration : 1h 21mn
    Bit rate : 2 163 Kbps
    Width : 1 280 pixels
    Height : 694 pixels
    Display aspect ratio : 1.85:1
    Frame rate mode : Constant
    Frame rate : 23.976 (24000/1001) fps
    Color space : YUV
    Chroma subsampling : 4:2:0
    Bit depth : 8 bits
    Bits/(Pixel*Frame) : 0.102
    Stream size : 1.23 GiB (63%)
    Writing library : x265 1.9:[Windows][GCC 5.2.0][64 bit] 8bit
    Encoding settings : wpp / ctu=64 / min-cu-size=8 / max-tu-size=32 / tu-intra-depth=3 / tu-inter-depth=3 / me=2 / subme=4 / merange=57 / no-rect / no-amp / max-merge=3 / temporal-mvp / no-early-skip / rdpenalty=0 / no-tskip / no-tskip-fast / strong-intra-smoothing / no-lossless / no-cu-lossless / no-constrained-intra / fast-intra / open-gop / no-temporal-layers / interlace=0 / keyint=250 / min-keyint=23 / scenecut=40 / rc-lookahead=40 / lookahead-slices=0 / bframes=8 / bframe-bias=0 / b-adapt=2 / ref=5 / limit-refs=1 / limit-modes / weightp / weightb / aq-mode=1 / qg-size=32 / aq-strength=2.00 / cbqpoffs=0 / crqpoffs=0 / rd=4 / psy-rd=1.00 / rdoq-level=0 / psy-rdoq=0.00 / signhide / deblock=-1:-1 / sao / no-sao-non-deblock / b-pyramid / no-cutree / no-intra-refresh / rc=crf / crf=21.1 / qcomp=0.60 / qpmin=0 / qpmax=51 / qpstep=4 / vbv-maxrate=12000 / vbv-bufsize=12000 / crf-max=0.0 / ipratio=1.40 / pbratio=1.30
    Language : English
    Default : Yes
    Forced : No
    Color range : Limited
    Matrix coefficients : BT.709

    Audio #1
    ID : 2
    Format : AC-3
    Format/Info : Audio Coding 3
    Mode extension : CM (complete main)
    Format settings, Endianness : Big
    Codec ID : A_AC3
    Duration : 1h 21mn
    Bit rate mode : Constant
    Bit rate : 640 Kbps
    Channel(s) : 6 channels
    Channel positions : Front: L C R, Side: L R, LFE
    Sampling rate : 48.0 KHz
    Frame rate : 31.250 fps (1536 spf)
    Compression mode : Lossy
    Stream size : 371 MiB (19%)
    Title : AC3 5.1
    Language : Italian
    Default : Yes
    Forced : No

    Audio #2
    ID : 3
    Format : AC-3
    Format/Info : Audio Coding 3
    Mode extension : CM (complete main)
    Format settings, Endianness : Big
    Codec ID : A_AC3
    Duration : 1h 21mn
    Bit rate mode : Constant
    Bit rate : 640 Kbps
    Channel(s) : 6 channels
    Channel positions : Front: L C R, Side: L R, LFE
    Sampling rate : 48.0 KHz
    Frame rate : 31.250 fps (1536 spf)
    Compression mode : Lossy
    Stream size : 371 MiB (19%)
    Title : AC3 5.1
    Language : English
    Default : No
    Forced : No

    Text #1
    ID : 4
    Format : UTF-8
    Codec ID : S_TEXT/UTF8
    Codec ID/Info : UTF-8 Plain Text
    Duration : 1h 10mn
    Bit rate : 0 bps
    Count of elements : 2
    Stream size : 30.0 Bytes (0%)
    Title : Forced
    Language : Italian
    Default : Yes
    Forced : Yes

    Text #2
    ID : 5
    Format : UTF-8
    Codec ID : S_TEXT/UTF8
    Codec ID/Info : UTF-8 Plain Text
    Duration : 1h 9mn
    Bit rate : 47 bps
    Count of elements : 621
    Stream size : 24.0 KiB (0%)
    Title : Normal
    Language : English
    Default : No
    Forced : No

    Text #3
    ID : 6
    Format : UTF-8
    Codec ID : S_TEXT/UTF8
    Codec ID/Info : UTF-8 Plain Text
    Duration : 1h 10mn
    Bit rate : 42 bps
    Count of elements : 551
    Stream size : 22.0 KiB (0%)
    Title : Normal
    Language : Italian
    Default : No
    Forced : No

    Text #4
    ID : 7
    Format : UTF-8
    Codec ID : S_TEXT/UTF8
    Codec ID/Info : UTF-8 Plain Text
    Duration : 1h 17mn
    Bit rate : 107 bps
    Count of elements : 1073
    Stream size : 60.8 KiB (0%)
    Title : SDH
    Language : English
    Default : No
    Forced : No

    Menu
    00:00:00.000 : en:00:00:00.000
    00:03:50.439 : en:00:03:50.439
    00:05:19.361 : en:00:05:19.361
    00:09:29.486 : en:00:09:29.486
    00:14:39.670 : en:00:14:39.670
    00:17:45.773 : en:00:17:45.773
    00:25:21.687 : en:00:25:21.687
    00:27:39.324 : en:00:27:39.324
    00:31:24.800 : en:00:31:24.800
    00:34:57.929 : en:00:34:57.929
    00:42:25.334 : en:00:42:25.334
    00:48:13.474 : en:00:48:13.474
    00:51:47.980 : en:00:51:47.980
    00:52:58.050 : en:00:52:58.050
    00:56:01.441 : en:00:56:01.441
    00:57:03.879 : en:00:57:03.879
    01:00:20.116 : en:01:00:20.116
    01:08:11.754 : en:01:08:11.754
    01:13:29.822 : en:01:13:29.822
    01:15:24.478 : en:01:15:24.478






    ** Contenuto Nascosto: Schiaccia il bottone RINGRAZIA per visualizzare i link **


    Password: W9uf3209bh0Ped970N
  2. 9 utenti hanno ringraziato PirateMKV per ci che ha scritto.

    albert-one (12.06.2016), Coby76 (03.02.2017), fedestudio (4 Settimane Fa), gambero20 (20.08.2016), gsteam (3 Settimane Fa), jackour (05.12.2016), keijimaeda2013 (20.11.2016), Menarello (16.09.2016), nemo (4 Settimane Fa)

Permessi di Scrittura

  • Tu non puoi inviare nuove discussioni
  • Tu non puoi inviare risposte
  • Tu non puoi inviare allegati
  • Tu non puoi modificare i tuoi messaggi
  •