HomePage - Come attivare il proprio account - Regole del Forum

HOT NEWS!!!

L'era glaciale 3 - L'alba dei dinosauri (2009) BDRip 720p HEVC ITA ENG AC3 ITA ENG Sub PirateMKV

Rogue one-a Star Wars story (2016)


Rogue One A Star Wars Story Ŕ il primo capitolo di una nuova avventurosa serie cinematografica che esplora i personaggi e gli eventi che ruotano intorno alla saga di Guerre Stellari.


1080p
720p
UNTOUCHED-1080p
BLURAY FULL
BLURAY FULL 3D
L'era glaciale 3 - L'alba dei dinosauri (2009) BDRip 720p HEVC ITA ENG AC3 ITA ENG Sub PirateMKV


Avviso a tutti i lettori di mondowarezz.Le sezioni Ebook,Quotidiani e Riviste.Sono momentaneamente chiuse.Vi preghiamo di non intasare la chatbox con le stesse domande.Grazie
Risultati da 1 a 1 di 1
  1. #1
    Status
    Offline
    L'avatar di PirateMKV
    Data Registrazione

    08.04.2015

    Messaggi

    2,781

    Ha ringraziato
    85 volte
    Ha Ricevuto 14,338 ringraziamenti in 2,505 discussioni volte
    Taggato
    1 Post(s)

    L'era glaciale 3 - L'alba dei dinosauri (2009) BDRip 720p HEVC ITA ENG AC3 ITA ENG Sub PirateMKV






    Titolo: Ice Age: Dawn of the Dinosaurs
    Nazione: USA
    Anno: 2009
    Genere: Animation, Action, Adventure
    Durata: 94 min
    Regia: Carlos Saldanha, Mike Thurmeier
    Cast: Eunice Cho, Karen Disher, Harrison Fahn, Maile Flanagan


    Manny e Ellie stanno per avere un bambino e la novitÓ sembra sconvolgere qualche equilibrio. Diego sente di non avere pi¨ lo smalto di una volta mentre Sid desidera sperimentare la "maternitÓ" a tutti i costi, anche se si tratta di dover badare a tre cuccioli di dinosauro nati da uova trovate per caso. Una nuova avventura al salvataggio proprio di Sid e l'incontro con un nuovo personaggio (Buck) serviranno a riunire il branco.

    Nome Versione: PirateMKV
    Fonte Video: BluRay
    Fonte Audio: BluRay



     






     

    General
    Unique ID : 221529850111314108598489512603659468214 (0xA6A918E17A0135DC89ED8A64174AFDB6)
    Complete name : C:\Users\Administrator\Downloads\Ice_Age\3\L'era glaciale 3 - L'alba dei dinosauri (2009) BDRip 720p HEVC ITA ENG AC3 ITA ENG Sub PirateMKV.mkv
    Format : Matroska
    Format version : Version 4 / Version 2
    File size : 2.69 GiB
    Duration : 1h 34mn
    Overall bit rate : 4 088 Kbps
    Movie name : L'era glaciale 3 - L'alba dei dinosauri (2009) - PirateMKV
    Encoded date : UTC 2016-05-15 08:01:58
    Writing application : mkvmerge v9.1.0 ('Little Earthquakes') 64bit
    Writing library : libebml v1.3.3 libmatroska v1.4.4 / Lavf57.36.100

    Video
    ID : 1
    Format : HEVC
    Format/Info : High Efficiency Video Coding
    Format profile : [email protected]@Main
    Codec ID : V_MPEGH/ISO/HEVC
    Duration : 1h 34mn
    Bit rate : 2 806 Kbps
    Width : 1 280 pixels
    Height : 694 pixels
    Display aspect ratio : 1.85:1
    Frame rate mode : Constant
    Frame rate : 23.976 (24000/1001) fps
    Color space : YUV
    Chroma subsampling : 4:2:0
    Bit depth : 8 bits
    Bits/(Pixel*Frame) : 0.132
    Stream size : 1.84 GiB (69%)
    Writing library : x265 1.9:[Windows][GCC 5.2.0][64 bit] 8bit
    Encoding settings : wpp / ctu=64 / min-cu-size=8 / max-tu-size=32 / tu-intra-depth=3 / tu-inter-depth=3 / me=2 / subme=4 / merange=57 / no-rect / no-amp / max-merge=3 / temporal-mvp / no-early-skip / rdpenalty=0 / no-tskip / no-tskip-fast / strong-intra-smoothing / no-lossless / no-cu-lossless / no-constrained-intra / fast-intra / open-gop / no-temporal-layers / interlace=0 / keyint=250 / min-keyint=23 / scenecut=40 / rc-lookahead=40 / lookahead-slices=0 / bframes=8 / bframe-bias=0 / b-adapt=2 / ref=5 / limit-refs=1 / limit-modes / weightp / weightb / aq-mode=1 / qg-size=32 / aq-strength=2.00 / cbqpoffs=0 / crqpoffs=0 / rd=4 / psy-rd=1.00 / rdoq-level=0 / psy-rdoq=0.00 / signhide / deblock=-1:-1 / sao / no-sao-non-deblock / b-pyramid / no-cutree / no-intra-refresh / rc=crf / crf=20.5 / qcomp=0.60 / qpmin=0 / qpmax=51 / qpstep=4 / vbv-maxrate=12000 / vbv-bufsize=12000 / crf-max=0.0 / ipratio=1.40 / pbratio=1.30
    Language : English
    Default : Yes
    Forced : No
    Color range : Limited
    Matrix coefficients : BT.709

    Audio #1
    ID : 2
    Format : AC-3
    Format/Info : Audio Coding 3
    Mode extension : CM (complete main)
    Format settings, Endianness : Big
    Codec ID : A_AC3
    Duration : 1h 34mn
    Bit rate mode : Constant
    Bit rate : 640 Kbps
    Channel(s) : 6 channels
    Channel positions : Front: L C R, Side: L R, LFE
    Sampling rate : 48.0 KHz
    Frame rate : 31.250 fps (1536 spf)
    Compression mode : Lossy
    Stream size : 430 MiB (16%)
    Title : AC3 5.1
    Language : Italian
    Default : Yes
    Forced : No

    Audio #2
    ID : 3
    Format : AC-3
    Format/Info : Audio Coding 3
    Mode extension : CM (complete main)
    Format settings, Endianness : Big
    Codec ID : A_AC3
    Duration : 1h 34mn
    Bit rate mode : Constant
    Bit rate : 640 Kbps
    Channel(s) : 6 channels
    Channel positions : Front: L C R, Side: L R, LFE
    Sampling rate : 48.0 KHz
    Frame rate : 31.250 fps (1536 spf)
    Compression mode : Lossy
    Stream size : 430 MiB (16%)
    Title : AC3 5.1
    Language : English
    Default : No
    Forced : No

    Text #1
    ID : 4
    Format : UTF-8
    Codec ID : S_TEXT/UTF8
    Codec ID/Info : UTF-8 Plain Text
    Duration : 1h 33mn
    Bit rate : 0 bps
    Count of elements : 2
    Stream size : 52.0 Bytes (0%)
    Title : Forced
    Language : Italian
    Default : Yes
    Forced : Yes

    Text #2
    ID : 5
    Format : UTF-8
    Codec ID : S_TEXT/UTF8
    Codec ID/Info : UTF-8 Plain Text
    Duration : 1h 30mn
    Bit rate : 38 bps
    Count of elements : 816
    Stream size : 25.8 KiB (0%)
    Title : Normal
    Language : English
    Default : No
    Forced : No

    Text #3
    ID : 6
    Format : UTF-8
    Codec ID : S_TEXT/UTF8
    Codec ID/Info : UTF-8 Plain Text
    Duration : 1h 33mn
    Bit rate : 38 bps
    Count of elements : 817
    Stream size : 26.1 KiB (0%)
    Title : Normal
    Language : Italian
    Default : No
    Forced : No

    Menu
    00:00:00.000 : en:00:00:00.000
    00:03:09.815 : en:00:03:09.815
    00:10:37.846 : en:00:10:37.846
    00:16:04.630 : en:00:16:04.630
    00:19:59.448 : en:00:19:59.448
    00:24:06.654 : en:00:24:06.654
    00:27:28.647 : en:00:27:28.647
    00:31:46.571 : en:00:31:46.571
    00:36:09.667 : en:00:36:09.667
    00:41:10.593 : en:00:41:10.593
    00:48:28.072 : en:00:48:28.072
    00:50:45.334 : en:00:50:45.334
    00:57:02.002 : en:00:57:02.002
    00:58:05.148 : en:00:58:05.148
    01:03:10.286 : en:01:03:10.286
    01:08:04.038 : en:01:08:04.038
    01:11:36.042 : en:01:11:36.042
    01:15:59.305 : en:01:15:59.305
    01:21:04.067 : en:01:21:04.067
    01:26:49.120 : en:01:26:49.120






    ** Contenuto Nascosto: Schiaccia il bottone RINGRAZIA per visualizzare i link **


    Password: W9uf3209bh0Ped970N
  2. 6 utenti hanno ringraziato PirateMKV per ci˛ che ha scritto.

    Coby76 (03.02.2017), gambero20 (20.08.2016), gsteam (2 Settimane Fa), keijimaeda2013 (20.11.2016), Menarello (15.09.2016), nemo (4 Settimane Fa)

Permessi di Scrittura

  • Tu non puoi inviare nuove discussioni
  • Tu non puoi inviare risposte
  • Tu non puoi inviare allegati
  • Tu non puoi modificare i tuoi messaggi
  •