HomePage - Come attivare il proprio account - Regole del Forum

HOT NEWS!!!

L'era glaciale 4 - Continenti alla deriva (2012) BDRip 1080p HEVC ITA ENG AC3 ITA ENG Sub PirateMKV

Rogue one-a Star Wars story (2016)


Rogue One A Star Wars Story il primo capitolo di una nuova avventurosa serie cinematografica che esplora i personaggi e gli eventi che ruotano intorno alla saga di Guerre Stellari.


1080p
720p
UNTOUCHED-1080p
BLURAY FULL
BLURAY FULL 3D
L'era glaciale 4 - Continenti alla deriva (2012) BDRip 1080p HEVC ITA ENG AC3 ITA ENG Sub PirateMKV


Avviso a tutti i lettori di mondowarezz.Le sezioni Ebook,Quotidiani e Riviste.Sono momentaneamente chiuse.Vi preghiamo di non intasare la chatbox con le stesse domande.Grazie
Risultati da 1 a 1 di 1
  1. #1
    Status
    Offline
    L'avatar di PirateMKV
    Data Registrazione

    08.04.2015

    Messaggi

    2,781

    Ha ringraziato
    85 volte
    Ha Ricevuto 14,387 ringraziamenti in 2,506 discussioni volte
    Taggato
    1 Post(s)

    L'era glaciale 4 - Continenti alla deriva (2012) BDRip 1080p HEVC ITA ENG AC3 ITA ENG Sub PirateMKV






    Titolo: Ice Age: Continental Drift
    Nazione: USA
    Anno: 2012
    Genere: Animation, Adventure, Comedy
    Durata: 88 min
    Regia: Steve Martino, Mike Thurmeier
    Cast: Aziz Ansari, Joy Behar, Christopher Campbell, Alain Chabat


    Il mammut Manny alle prese con l'adolescenza della figlia Pesca, attratta da amicizie superficiali se non pericolose, quando il ghiaccio sotto le zampe comincia a tremare fino a rompersi. Manny, Diego e Sid, con la compagnia folle di "nonnina" (l'anziana di famiglia che i genitori di Sid gli hanno scaricato prima di abbandonarlo per la seconda volta), si ritrovano alla deriva su un iceberg e vengono attaccati da una ciurma di pirati, capitanata dall'odioso capital Sbudella.

    Nome Versione: PirateMKV
    Fonte Video: BluRay
    Fonte Audio: BluRay



     






     

    General
    Unique ID : 231041336359069304640987345031022544948 (0xADD0F15BE6250D5D94C84E21A9D88834)
    Complete name : C:\Users\Administrator\Downloads\Ice_Age\4\L'era glaciale 4 - Continenti alla deriva (2012) BDRip 1080p HEVC ITA ENG AC3 ITA ENG Sub PirateMKV.mkv
    Format : Matroska
    Format version : Version 4 / Version 2
    File size : 3.78 GiB
    Duration : 1h 27mn
    Overall bit rate : 6 168 Kbps
    Movie name : L'era glaciale 4 - Continenti alla deriva (2012) - PirateMKV
    Encoded date : UTC 2016-05-15 20:11:36
    Writing application : mkvmerge v9.1.0 ('Little Earthquakes') 64bit
    Writing library : libebml v1.3.3 libmatroska v1.4.4 / Lavf57.36.100

    Video
    ID : 1
    Format : HEVC
    Format/Info : High Efficiency Video Coding
    Format profile : [email protected]@Main
    Codec ID : V_MPEGH/ISO/HEVC
    Duration : 1h 27mn
    Bit rate : 4 886 Kbps
    Width : 1 920 pixels
    Height : 800 pixels
    Display aspect ratio : 2.40:1
    Frame rate mode : Constant
    Frame rate : 23.976 (24000/1001) fps
    Color space : YUV
    Chroma subsampling : 4:2:0
    Bit depth : 8 bits
    Bits/(Pixel*Frame) : 0.133
    Stream size : 2.99 GiB (79%)
    Writing library : x265 1.9:[Windows][GCC 5.2.0][64 bit] 8bit
    Encoding settings : wpp / ctu=64 / min-cu-size=8 / max-tu-size=32 / tu-intra-depth=3 / tu-inter-depth=3 / me=2 / subme=4 / merange=57 / no-rect / no-amp / max-merge=3 / temporal-mvp / no-early-skip / rdpenalty=0 / no-tskip / no-tskip-fast / strong-intra-smoothing / no-lossless / no-cu-lossless / no-constrained-intra / fast-intra / open-gop / no-temporal-layers / interlace=0 / keyint=250 / min-keyint=23 / scenecut=40 / rc-lookahead=40 / lookahead-slices=0 / bframes=8 / bframe-bias=0 / b-adapt=2 / ref=5 / limit-refs=1 / limit-modes / weightp / weightb / aq-mode=1 / qg-size=32 / aq-strength=2.00 / cbqpoffs=0 / crqpoffs=0 / rd=4 / psy-rd=1.00 / rdoq-level=0 / psy-rdoq=0.00 / signhide / deblock=-1:-1 / sao / no-sao-non-deblock / b-pyramid / no-cutree / no-intra-refresh / rc=crf / crf=21.0 / qcomp=0.60 / qpmin=0 / qpmax=51 / qpstep=4 / vbv-maxrate=12000 / vbv-bufsize=12000 / crf-max=0.0 / ipratio=1.40 / pbratio=1.30
    Language : English
    Default : Yes
    Forced : No
    Color range : Limited
    Matrix coefficients : BT.709

    Audio #1
    ID : 2
    Format : AC-3
    Format/Info : Audio Coding 3
    Mode extension : CM (complete main)
    Format settings, Endianness : Big
    Codec ID : A_AC3
    Duration : 1h 27mn
    Bit rate mode : Constant
    Bit rate : 640 Kbps
    Channel(s) : 6 channels
    Channel positions : Front: L C R, Side: L R, LFE
    Sampling rate : 48.0 KHz
    Frame rate : 31.250 fps (1536 spf)
    Compression mode : Lossy
    Stream size : 402 MiB (10%)
    Title : AC3 5.1
    Language : Italian
    Default : Yes
    Forced : No

    Audio #2
    ID : 3
    Format : AC-3
    Format/Info : Audio Coding 3
    Mode extension : CM (complete main)
    Format settings, Endianness : Big
    Codec ID : A_AC3
    Duration : 1h 27mn
    Bit rate mode : Constant
    Bit rate : 640 Kbps
    Channel(s) : 6 channels
    Channel positions : Front: L C R, Side: L R, LFE
    Sampling rate : 48.0 KHz
    Frame rate : 31.250 fps (1536 spf)
    Compression mode : Lossy
    Stream size : 402 MiB (10%)
    Title : AC3 5.1
    Language : English
    Default : No
    Forced : No

    Text #1
    ID : 4
    Format : UTF-8
    Codec ID : S_TEXT/UTF8
    Codec ID/Info : UTF-8 Plain Text
    Duration : 1h 26mn
    Bit rate : 50 bps
    Count of elements : 1158
    Stream size : 31.8 KiB (0%)
    Title : Normal
    Language : Italian
    Default : No
    Forced : No

    Text #2
    ID : 5
    Format : UTF-8
    Codec ID : S_TEXT/UTF8
    Codec ID/Info : UTF-8 Plain Text
    Duration : 1h 25mn
    Bit rate : 51 bps
    Count of elements : 1151
    Stream size : 32.2 KiB (0%)
    Title : Normal
    Language : English
    Default : No
    Forced : No

    Menu
    00:00:00.000 : en:00:00:00.000
    00:03:25.038 : en:00:03:25.038
    00:05:08.225 : en:00:05:08.225
    00:09:34.407 : en:00:09:34.407
    00:13:09.706 : en:00:13:09.706
    00:15:56.330 : en:00:15:56.330
    00:18:23.644 : en:00:18:23.644
    00:22:24.718 : en:00:22:24.718
    00:25:57.556 : en:00:25:57.556
    00:29:18.966 : en:00:29:18.966
    00:32:58.602 : en:00:32:58.602
    00:36:15.382 : en:00:36:15.382
    00:38:42.654 : en:00:38:42.654
    00:43:49.710 : en:00:43:49.710
    00:45:30.645 : en:00:45:30.645
    00:49:39.977 : en:00:49:39.977
    00:53:50.477 : en:00:53:50.477
    00:57:23.857 : en:00:57:23.857
    01:02:32.040 : en:01:02:32.040
    01:08:09.335 : en:01:08:09.335
    01:11:11.476 : en:01:11:11.476
    01:13:15.641 : en:01:13:15.641
    01:16:54.401 : en:01:16:54.401
    01:19:24.635 : en:01:19:24.635






    ** Contenuto Nascosto: Schiaccia il bottone RINGRAZIA per visualizzare i link **


    Password: W9uf3209bh0Ped970N
  2. 13 utenti hanno ringraziato PirateMKV per ci che ha scritto.

    antonella.lami (19.05.2016), chochobo (11.06.2016), deckard69 (17.12.2016), GINOBARTALI (14.08.2016), HypnotizeTore (07.09.2016), Lorenzo75 (16.06.2016), madshouse (28.09.2016), Menarello (15.09.2016), overtheburn (11.10.2016), rulkks (23.10.2016), VITTORIOO (2 Settimane Fa), webmagut (20.10.2016), xxxiceman (21.08.2016)

Permessi di Scrittura

  • Tu non puoi inviare nuove discussioni
  • Tu non puoi inviare risposte
  • Tu non puoi inviare allegati
  • Tu non puoi modificare i tuoi messaggi
  •