HomePage - Come attivare il proprio account - Regole del Forum

HOT NEWS!!!

Ligabue - Sopravvissuti e sopravviventi (1993).Flac

Alien Covenant (2017)


I L'equipaggio della nave Covenant, diretta verso un remoto pianeta sul lato più lontano della galassia col compito di colonizzarlo, scopre che quello che pensano fosse un paradiso inesplorato, in realtà è un mondo pericoloso e ostile.


1080p
720p
UNTOUCHED-1080p
BLURAY FULL
BLURAY FULL 3D
Ligabue - Sopravvissuti e sopravviventi (1993).Flac
Risultati da 1 a 3 di 3
  1. #1
    Status
    Offline
    L'avatar di bobsax
    Data Registrazione

    19.05.2013

    Messaggi

    1,889

    Ha ringraziato
    0 volte
    Ha Ricevuto 26,666 ringraziamenti in 1,591 discussioni volte
    Taggato
    0 Post(s)

    Ligabue - Sopravvissuti e sopravviventi (1993).Flac

    Ligabue - Sopravvissuti e sopravviventi (1993).Flac







    Ligabue - Sopravvissuti e sopravviventi (1993)
    ROCK | 1 Cd | 13 Track
    EAC Rip | Cue + Log + M3u + Cover
    Size 385 Mb








    TRACKLIST
    *********************************************
    Ancora in piedi – 4:15
    A.A.A. qualcuno cercasi – 4:54
    Ho messo via – 4:44
    Dove fermano i treni – 3:21
    I duri hanno due cuori – 4:05
    La ballerina del carillon – 3:41
    Prezoo – 0:40
    Lo zoo è qui – 3:56
    Piccola città eterna – 5:02
    Walter il mago – 4:17
    Pane al pane – 3:33
    Quando tocca a te – 5:31
    Sopravvissuti e sopravviventi: tema – 1:34






    REPORT .LOG
    *********************************************
     

    Codice:
    Exact Audio Copy V1.0 beta 3 from 29. August 2011
    
    
    EAC extraction logfile from 10. March 2013, 21:10
    
    
    Ligabue / Sopravvissuti e sopravviventi
    
    
    Used drive : TSSTcorpCDDVDW SH-S223Q Adapter: 3 ID: 0
    
    
    Read mode : Secure
    Utilize accurate stream : Yes
    Defeat audio cache : Yes
    Make use of C2 pointers : No
    
    
    Read offset correction : 6
    Overread into Lead-In and Lead-Out : No
    Fill up missing offset samples with silence : Yes
    Delete leading and trailing silent blocks : No
    Null samples used in CRC calculations : Yes
    Used interface : Installed external ASPI interface
    Gap handling : Appended to previous track
    
    
    Used output format : User Defined Encoder
    Selected bitrate : 1024 kBit/s
    Quality : High
    Add ID3 tag : No
    Command line compressor : C:\Program Files\Exact Audio Copy\Flac\flac.exe
    Additional command line options : -8 -V -T "Artist=%artist%" -T "Title=%title%" -T "Album=%albumtitle%" -T "DATE=%year%" -T "TRACKNUMBER=%tracknr%" -T "Genre=%genre%" -T "ALBUMARTIST=%albumartist%" -T "ALBUM ARTIST=%albumartist%" -T "COMMENT=EAC Secure Mode, Test & Copy, AccurateRip, FLAC -8" %source%
    
    
    
    
    TOC of the extracted CD
    
    
    Track | Start | Length | Start sector | End sector 
    ---------------------------------------------------------
    1 | 0:00.00 | 4:19.17 | 0 | 19441 
    2 | 4:19.17 | 4:59.25 | 19442 | 41891 
    3 | 9:18.42 | 4:46.15 | 41892 | 63356 
    4 | 14:04.57 | 3:23.40 | 63357 | 78621 
    5 | 17:28.22 | 4:08.58 | 78622 | 97279 
    6 | 21:37.05 | 3:43.62 | 97280 | 114066 
    7 | 25:20.67 | 0:40.45 | 114067 | 117111 
    8 | 26:01.37 | 4:00.03 | 117112 | 135114 
    9 | 30:01.40 | 5:04.57 | 135115 | 157971 
    10 | 35:06.22 | 4:19.20 | 157972 | 177416 
    11 | 39:25.42 | 3:35.43 | 177417 | 193584 
    12 | 43:01.10 | 5:33.62 | 193585 | 218621 
    13 | 48:34.72 | 1:34.03 | 218622 | 225674 
    
    
    
    
    Track 1
    
    
    Filename P:\FLAC\ITA OK\LIGA.SOP.E.SOP.FLAC\01 Ancora in piedi.wav
    
    
    Pre-gap length 0:00:02.00
    
    
    Peak level 100.0 %
    Extraction speed 4.4 X
    Track quality 100.0 %
    Test CRC 81512819
    Copy CRC 81512819
    Accurately ripped (confidence 16) [FE0C339F] (AR v1)
    Copy OK
    
    
    Track 2
    
    
    Filename P:\FLAC\ITA OK\LIGA.SOP.E.SOP.FLAC\02 A.A.A. Qualcuno cercasi.wav
    
    
    Pre-gap length 0:00:01.52
    
    
    Peak level 100.0 %
    Extraction speed 5.0 X
    Track quality 100.0 %
    Test CRC D71D04C3
    Copy CRC D71D04C3
    Accurately ripped (confidence 16) [AA871300] (AR v1)
    Copy OK
    
    
    Track 3
    
    
    Filename P:\FLAC\ITA OK\LIGA.SOP.E.SOP.FLAC\03 Ho messo via.wav
    
    
    Pre-gap length 0:00:03.05
    
    
    Peak level 92.1 %
    Extraction speed 5.4 X
    Track quality 100.0 %
    Test CRC 61A084A5
    Copy CRC 61A084A5
    Accurately ripped (confidence 16) [724A49B1] (AR v1)
    Copy OK
    
    
    Track 4
    
    
    Filename P:\FLAC\ITA OK\LIGA.SOP.E.SOP.FLAC\04 Dove fermano i treni.wav
    
    
    Pre-gap length 0:00:02.12
    
    
    Peak level 95.3 %
    Extraction speed 4.4 X
    Track quality 99.9 %
    Test CRC 3A9916B0
    Copy CRC 3A9916B0
    Accurately ripped (confidence 16) [B9205C69] (AR v1)
    Copy OK
    
    
    Track 5
    
    
    Filename P:\FLAC\ITA OK\LIGA.SOP.E.SOP.FLAC\05 I duri hanno due cuori.wav
    
    
    Pre-gap length 0:00:02.12
    
    
    Peak level 90.8 %
    Extraction speed 6.1 X
    Track quality 100.0 %
    Test CRC 58A52ACE
    Copy CRC 58A52ACE
    Accurately ripped (confidence 16) [2D62796F] (AR v1)
    Copy OK
    
    
    Track 6
    
    
    Filename P:\FLAC\ITA OK\LIGA.SOP.E.SOP.FLAC\06 La ballerina del carillon.wav
    
    
    Pre-gap length 0:00:02.43
    
    
    Peak level 77.7 %
    Extraction speed 6.3 X
    Track quality 100.0 %
    Test CRC FDA22B82
    Copy CRC FDA22B82
    Accurately ripped (confidence 16) [50BAD594] (AR v1)
    Copy OK
    
    
    Track 7
    
    
    Filename P:\FLAC\ITA OK\LIGA.SOP.E.SOP.FLAC\07 Prezoo.wav
    
    
    Pre-gap length 0:00:02.05
    
    
    Peak level 60.4 %
    Extraction speed 3.8 X
    Track quality 100.0 %
    Test CRC ED26B44E
    Copy CRC ED26B44E
    Accurately ripped (confidence 16) [15625921] (AR v1)
    Copy OK
    
    
    Track 8
    
    
    Filename P:\FLAC\ITA OK\LIGA.SOP.E.SOP.FLAC\08 Lo zoo è qui.wav
    
    
    Peak level 100.0 %
    Extraction speed 5.3 X
    Track quality 99.9 %
    Test CRC 5AB8424D
    Copy CRC 5AB8424D
    Accurately ripped (confidence 16) [2480884E] (AR v1)
    Copy OK
    
    
    Track 9
    
    
    Filename P:\FLAC\ITA OK\LIGA.SOP.E.SOP.FLAC\09 Piccola città eterna.wav
    
    
    Pre-gap length 0:00:03.30
    
    
    Peak level 96.5 %
    Extraction speed 6.0 X
    Track quality 99.9 %
    Test CRC A080706B
    Copy CRC A080706B
    Accurately ripped (confidence 16) [123226F8] (AR v1)
    Copy OK
    
    
    Track 10
    
    
    Filename P:\FLAC\ITA OK\LIGA.SOP.E.SOP.FLAC\10 Walter il mago.wav
    
    
    Pre-gap length 0:00:01.47
    
    
    Peak level 100.0 %
    Extraction speed 6.0 X
    Track quality 99.9 %
    Test CRC 91FF3E23
    Copy CRC 91FF3E23
    Accurately ripped (confidence 16) [84BE25AF] (AR v1)
    Copy OK
    
    
    Track 11
    
    
    Filename P:\FLAC\ITA OK\LIGA.SOP.E.SOP.FLAC\11 Pane al pane.wav
    
    
    Pre-gap length 0:00:01.55
    
    
    Peak level 100.0 %
    Extraction speed 7.5 X
    Track quality 100.0 %
    Test CRC FC6FF40F
    Copy CRC FC6FF40F
    Accurately ripped (confidence 16) [817ACC66] (AR v1)
    Copy OK
    
    
    Track 12
    
    
    Filename P:\FLAC\ITA OK\LIGA.SOP.E.SOP.FLAC\12 Quando tocca a te.wav
    
    
    Pre-gap length 0:00:01.55
    
    
    Peak level 75.9 %
    Extraction speed 8.1 X
    Track quality 100.0 %
    Test CRC B3DD89F2
    Copy CRC B3DD89F2
    Accurately ripped (confidence 16) [C33C0174] (AR v1)
    Copy OK
    
    
    Track 13
    
    
    Filename P:\FLAC\ITA OK\LIGA.SOP.E.SOP.FLAC\13 Sopravvissuti e sopravviventi- Tema.wav
    
    
    Pre-gap length 0:00:01.72
    
    
    Peak level 95.9 %
    Extraction speed 6.6 X
    Track quality 100.0 %
    Test CRC DD4DA84B
    Copy CRC DD4DA84B
    Accurately ripped (confidence 16) [D5F1456C] (AR v1)
    Copy OK
    
    
    
    
    All tracks accurately ripped
    
    
    No errors occurred
    
    
    End of status report
    
    
    ---- CUETools DB Plugin V2.1.3
    
    
    [CTDB TOCID: l6FEC9BecZPb85iGQ9KNDO0AWHg-] found, Submit result: l6FEC9BecZPb85iGQ9KNDO0AWHg- has been confirmed
    [d0a92b69] (25/27) Accurately ripped
    [6628b7ac] (01/27) No match
    [b0cf3de6] (01/27) No match
    
    
    
    
    ==== Log checksum 949B05D3F82A27775411F148AEA917ECC82AD4B3230C66165328A43CBD213D98 ====







    DOWNLOAD
    *********************************************
    ** Contenuto Nascosto: Schiaccia il bottone RINGRAZIA per visualizzare i link **











    ************************************************** ********




    My referrals
    Se ti piace il mio lavoro
    Attiva o Rinnova dai link sotto


    http://pasted.co/5b297e08
    mirror
    http://freetexthost.com/waxdlu13yy


    Ultima modifica di bobsax; 26.05.2016 alle 23:43
  2. 8 utenti hanno ringraziato bobsax per ciò che ha scritto.

    antony8690 (21.03.2015), bulldog35 (08.02.2017), chrisf (15.01.2015), deckard69 (23.09.2016), linus66 (27.09.2016), lucioweb (16.10.2016), metalmaster (09.12.2016), renzone1951 (11.12.2016)

  3. #2
    Status
    Offline
    L'avatar di bobsax
    Data Registrazione

    19.05.2013

    Messaggi

    1,889

    Ha ringraziato
    0 volte
    Ha Ricevuto 26,666 ringraziamenti in 1,591 discussioni volte
    Taggato
    0 Post(s)
    nuovi link
  4. The Following User Says Thank You to bobsax For This Useful Post:

    deckard69 (23.09.2016)

  5. #3
    Status
    Offline
    L'avatar di bobsax
    Data Registrazione

    19.05.2013

    Messaggi

    1,889

    Ha ringraziato
    0 volte
    Ha Ricevuto 26,666 ringraziamenti in 1,591 discussioni volte
    Taggato
    0 Post(s)
    nuovi link
  6. The Following User Says Thank You to bobsax For This Useful Post:

    deckard69 (23.09.2016)

Permessi di Scrittura

  • Tu non puoi inviare nuove discussioni
  • Tu non puoi inviare risposte
  • Tu non puoi inviare allegati
  • Tu non puoi modificare i tuoi messaggi
  •