HomePage - Come attivare il proprio account - Regole del Forum

HOT NEWS!!!

L'ultima parola - La vera storia di Dalton Trumbo (2015) BDRip 720p HEVC ITA ENG AC3 ITA ENG Sub PirateMKV

Passengers (2016)


Durante un viaggio verso una nuova casa su un altro pianeta, due passeggeri vengono svegliati 90 anni prima del previsto per un guasto della nave spaziale.


1080p
720p
UNTOUCHED-1080p
BLURAY FULL
BLURAY FULL 3D
L'ultima parola - La vera storia di Dalton Trumbo (2015) BDRip 720p HEVC ITA ENG AC3 ITA ENG Sub PirateMKV


Avviso a tutti i lettori di mondowarezz.Le sezioni Ebook,Quotidiani e Riviste.Sono momentaneamente chiuse.Vi preghiamo di non intasare la chatbox con le stesse domande.Grazie
Risultati da 1 a 3 di 3
  1. #1
    Status
    Offline
    L'avatar di PirateMKV
    Data Registrazione

    08.04.2015

    Messaggi

    2,781

    Ha ringraziato
    85 volte
    Ha Ricevuto 14,270 ringraziamenti in 2,503 discussioni volte
    Taggato
    1 Post(s)

    L'ultima parola - La vera storia di Dalton Trumbo (2015) BDRip 720p HEVC ITA ENG AC3 ITA ENG Sub PirateMKV






    Titolo: Trumbo
    Nazione: USA
    Anno: 2015
    Genere: Biography, Drama
    Durata: 124 min
    Regia: Jay Roach
    Cast: Bryan Cranston, Michael Stuhlbarg, David Maldonado, John Getz


    Dalton Trumbo sbarc˛ dal Colorado a Los Angeles, cominci˛ come lettore per la Warner Bros e divenne, negli anni Quaranta, uno degli sceneggiatori pi¨ ricercati d'America. Lavor˛ per la Columbia, la MGM, la RKO ed era una presenza fissa nella scena sociale hollywoodiana. Era anche comunista, schierato con i sindacati e in favore dei diritti civili. Nel 1947, finý, come mezza Hollywood, di fronte al Comitato per le AttivitÓ Antiamericane, ma, a differenza della maggior parte dei colleghi, rifiut˛ di rispondere alle domande. And˛ in prigione, perse la casa, il lavoro, il palcoscenico sociale, eppure non si arrese: continu˛ a scrivere sceneggiature sotto falso nome e a battersi fino al successo per lo smantellamento della lista nera.

    Nome Versione: PirateMKV
    Fonte Video: BluRay
    Fonte Audio: DVD



     






     

    General
    Unique ID : 224698733078231890619206696786653025939 (0xA90B66DFA6551DF7B7AAD7E7CEB71693)
    Complete name : C:\Users\Administrator\Downloads\Trumbo\L'ultima parola - La vera storia di Dalton Trumbo (2015) BDRip 720p HEVC ITA ENG AC3 ITA ENG Sub PirateMKV.mkv
    Format : Matroska
    Format version : Version 4 / Version 2
    File size : 2.49 GiB
    Duration : 2h 4mn
    Overall bit rate : 2 857 Kbps
    Movie name : Trumbo.2015.1080p.BDREMUX.1080p
    Encoded date : UTC 2016-05-09 17:13:01
    Writing application : mkvmerge v9.1.0 ('Little Earthquakes') 64bit
    Writing library : libebml v1.3.3 libmatroska v1.4.4 / Lavf57.34.103

    Video
    ID : 1
    Format : HEVC
    Format/Info : High Efficiency Video Coding
    Format profile : [email protected]@Main
    Codec ID : V_MPEGH/ISO/HEVC
    Duration : 2h 4mn
    Bit rate : 1 766 Kbps
    Width : 1 280 pixels
    Height : 694 pixels
    Display aspect ratio : 1.85:1
    Frame rate mode : Constant
    Frame rate : 23.976 (24000/1001) fps
    Color space : YUV
    Chroma subsampling : 4:2:0
    Bit depth : 8 bits
    Bits/(Pixel*Frame) : 0.083
    Stream size : 1.54 GiB (62%)
    Writing library : x265 1.9:[Windows][GCC 5.2.0][64 bit] 8bit
    Encoding settings : wpp / ctu=64 / min-cu-size=8 / max-tu-size=32 / tu-intra-depth=3 / tu-inter-depth=3 / me=2 / subme=4 / merange=57 / no-rect / no-amp / max-merge=3 / temporal-mvp / no-early-skip / rdpenalty=0 / no-tskip / no-tskip-fast / strong-intra-smoothing / no-lossless / no-cu-lossless / no-constrained-intra / fast-intra / open-gop / no-temporal-layers / interlace=0 / keyint=250 / min-keyint=23 / scenecut=40 / rc-lookahead=40 / lookahead-slices=0 / bframes=8 / bframe-bias=0 / b-adapt=2 / ref=5 / limit-refs=1 / limit-modes / weightp / weightb / aq-mode=1 / qg-size=32 / aq-strength=2.00 / cbqpoffs=0 / crqpoffs=0 / rd=4 / psy-rd=1.00 / rdoq-level=0 / psy-rdoq=0.00 / signhide / deblock=-1:-1 / sao / no-sao-non-deblock / b-pyramid / no-cutree / no-intra-refresh / rc=crf / crf=21.3 / qcomp=0.60 / qpmin=0 / qpmax=51 / qpstep=4 / vbv-maxrate=12000 / vbv-bufsize=12000 / crf-max=0.0 / ipratio=1.40 / pbratio=1.30
    Language : English
    Default : Yes
    Forced : No
    Color range : Limited
    Matrix coefficients : BT.709

    Audio #1
    ID : 2
    Format : AC-3
    Format/Info : Audio Coding 3
    Mode extension : CM (complete main)
    Format settings, Endianness : Big
    Codec ID : A_AC3
    Duration : 2h 4mn
    Bit rate mode : Constant
    Bit rate : 448 Kbps
    Channel(s) : 6 channels
    Channel positions : Front: L C R, Side: L R, LFE
    Sampling rate : 48.0 KHz
    Frame rate : 31.250 fps (1536 spf)
    Compression mode : Lossy
    Stream size : 399 MiB (16%)
    Title : AC3 5.1 (DVD Resync)
    Language : Italian
    Default : Yes
    Forced : No

    Audio #2
    ID : 3
    Format : AC-3
    Format/Info : Audio Coding 3
    Mode extension : CM (complete main)
    Format settings, Endianness : Big
    Codec ID : A_AC3
    Duration : 2h 4mn
    Bit rate mode : Constant
    Bit rate : 640 Kbps
    Channel(s) : 6 channels
    Channel positions : Front: L C R, Side: L R, LFE
    Sampling rate : 48.0 KHz
    Frame rate : 31.250 fps (1536 spf)
    Compression mode : Lossy
    Stream size : 571 MiB (22%)
    Title : AC3 5.1
    Language : English
    Default : No
    Forced : No

    Text #1
    ID : 4
    Format : UTF-8
    Codec ID : S_TEXT/UTF8
    Codec ID/Info : UTF-8 Plain Text
    Duration : 1h 57mn
    Bit rate : 3 bps
    Count of elements : 76
    Stream size : 2.78 KiB (0%)
    Title : Forced
    Language : Italian
    Default : Yes
    Forced : Yes

    Text #2
    ID : 5
    Format : UTF-8
    Codec ID : S_TEXT/UTF8
    Codec ID/Info : UTF-8 Plain Text
    Duration : 1h 55mn
    Bit rate : 67 bps
    Count of elements : 1807
    Stream size : 57.7 KiB (0%)
    Title : Normal
    Language : Italian
    Default : No
    Forced : No

    Text #3
    ID : 6
    Format : UTF-8
    Codec ID : S_TEXT/UTF8
    Codec ID/Info : UTF-8 Plain Text
    Duration : 1h 58mn
    Bit rate : 77 bps
    Count of elements : 2115
    Stream size : 67.8 KiB (0%)
    Title : Normal
    Language : English
    Default : No
    Forced : No

    Text #4
    ID : 7
    Format : UTF-8
    Codec ID : S_TEXT/UTF8
    Codec ID/Info : UTF-8 Plain Text
    Duration : 1h 55mn
    Bit rate : 69 bps
    Count of elements : 1823
    Stream size : 59.1 KiB (0%)
    Title : SDH
    Language : Italian
    Default : No
    Forced : No

    Text #5
    ID : 8
    Format : UTF-8
    Codec ID : S_TEXT/UTF8
    Codec ID/Info : UTF-8 Plain Text
    Duration : 2h 0mn
    Bit rate : 82 bps
    Count of elements : 2261
    Stream size : 72.4 KiB (0%)
    Title : SDH
    Language : English
    Default : No
    Forced : No

    Menu #1
    00:00:00.000 : en:Chapter 01
    00:07:30.199 : en:Chapter 02
    00:14:59.315 : en:Chapter 03
    00:20:57.047 : en:Chapter 04
    00:26:34.509 : en:Chapter 05
    00:33:53.031 : en:Chapter 06
    00:37:17.443 : en:Chapter 07
    00:44:06.602 : en:Chapter 08
    00:49:25.170 : en:Chapter 09
    00:55:12.100 : en:Chapter 10
    01:02:08.933 : en:Chapter 11
    01:08:05.915 : en:Chapter 12
    01:16:20.450 : en:Chapter 13
    01:23:31.381 : en:Chapter 14
    01:29:42.502 : en:Chapter 15
    01:34:53.354 : en:Chapter 16
    01:39:49.441 : en:Chapter 17
    01:47:33.905 : en:Chapter 18
    01:52:36.666 : en:Chapter 19
    01:58:56.754 : en:Chapter 20

    Menu #2
    00:00:00.000 : :Chapter 01
    00:07:30.199 : :Chapter 02
    00:14:59.315 : :Chapter 03
    00:20:57.047 : :Chapter 04
    00:26:34.509 : :Chapter 05
    00:33:53.031 : :Chapter 06
    00:37:17.443 : :Chapter 07
    00:44:06.602 : :Chapter 08
    00:49:25.170 : :Chapter 09
    00:55:12.100 : :Chapter 10
    01:02:08.933 : :Chapter 11
    01:08:05.915 : :Chapter 12
    01:16:20.450 : :Chapter 13
    01:23:31.381 : :Chapter 14
    01:29:42.502 : :Chapter 15
    01:34:53.354 : :Chapter 16
    01:39:49.441 : :Chapter 17
    01:47:33.905 : :Chapter 18
    01:52:36.666 : :Chapter 19
    01:58:56.754 : :Chapter 20






    ** Contenuto Nascosto: Schiaccia il bottone RINGRAZIA per visualizzare i link **


    Password: W9uf3209bh0Ped970N
    Ultima modifica di PirateMKV; 12.08.2016 alle 21:16
  2. 3 utenti hanno ringraziato PirateMKV per ci˛ che ha scritto.

    oliva18 (12.08.2016), sbirisbiri (23.01.2017), yami (15.05.2016)

  3. #2
    Status
    Offline
    L'avatar di oliva18
    Data Registrazione

    22.05.2013

    Messaggi

    14

    Ha ringraziato
    489 volte
    Ha Ricevuto 8 ringraziamenti in 6 discussioni volte
    Taggato
    0 Post(s)
    Ciao, la password di Keeplinks sembra essere sbagliata. Grazie
  4. #3
    Status
    Offline
    L'avatar di PirateMKV
    Data Registrazione

    08.04.2015

    Messaggi

    2,781

    Ha ringraziato
    85 volte
    Ha Ricevuto 14,270 ringraziamenti in 2,503 discussioni volte
    Taggato
    1 Post(s)
    Sistemata
    ╚ SEVERAMENTE VIETATO REUPPARE LE MIE RELEASE SENZA IL MIO CONSENSO

    Se non avete l'elenco online delle password Keeplinks dei miei film, potete riceverlo via pm. L'elenco Ŕ aggiornato costantemente quindi basterÓ richiederlo solo una volta.

Permessi di Scrittura

  • Tu non puoi inviare nuove discussioni
  • Tu non puoi inviare risposte
  • Tu non puoi inviare allegati
  • Tu non puoi modificare i tuoi messaggi
  •