HomePage - Come attivare il proprio account - Regole del Forum

HOT NEWS!!!

Madagascar 2 (2008) BDRip 1080p HEVC ITA ENG AC3 ITA ENG Sub PirateMKV

Rogue one-a Star Wars story (2016)


Rogue One A Star Wars Story è il primo capitolo di una nuova avventurosa serie cinematografica che esplora i personaggi e gli eventi che ruotano intorno alla saga di Guerre Stellari.


1080p
720p
UNTOUCHED-1080p
BLURAY FULL
BLURAY FULL 3D
Madagascar 2 (2008) BDRip 1080p HEVC ITA ENG AC3 ITA ENG Sub PirateMKV


Avviso a tutti i lettori di mondowarezz.Le sezioni Ebook,Quotidiani e Riviste.Sono momentaneamente chiuse.Vi preghiamo di non intasare la chatbox con le stesse domande.Grazie
Risultati da 1 a 1 di 1
  1. #1
    Status
    Offline
    L'avatar di PirateMKV
    Data Registrazione

    08.04.2015

    Messaggi

    2,781

    Ha ringraziato
    85 volte
    Ha Ricevuto 14,856 ringraziamenti in 2,525 discussioni volte
    Taggato
    1 Post(s)

    Madagascar 2 (2008) BDRip 1080p HEVC ITA ENG AC3 ITA ENG Sub PirateMKV






    Titolo: Madagascar: Escape 2 Africa
    Nazione: USA
    Anno: 2008
    Genere: Animation, Action, Adventure
    Durata: 89 min
    Regia: Eric Darnell, Tom McGrath
    Cast: Ben Stiller, Chris Rock, David Schwimmer, Jada Pinkett Smith


    Ritroviamo Alex il leone, Marty la zebra, Gloria l'ippopotamo e Melman la giraffa alla deriva nelle remote spiagge del Madagascar, pronti ad imbarcarsi sull'aereo riparato dalla squadra di terribili pinguini per tornare a Central Park. Un atterraggio di fortuna, però, ben prima di arrivare nei cieli americani, li catapulta nel bel mezzo di una pianura africana, ai piedi del Kilimangiaro. Tutto appare come la realizzazione di un sogno: Alex ritrova la famiglia, Marty il branco che ha sempre desiderato, Gloria le attenzioni del prestante Moto Moto e Melman l'opportunità di mostrare un po' di eroismo. L'Africa è dunque meglio di New York City? Di certo non è meno avventurosa.

    Nome Versione: PirateMKV
    Fonte Video: BluRay
    Fonte Audio: BluRay



     






     

    General
    Unique ID : 220744504801683685309200011404218728189 (0xA611D85E1633783CA8E8BF2A2C4FFEFD)
    Complete name : C:\Users\Administrator\Downloads\madagascar\2\Mada gascar 2 (2008) BDRip 1080p HEVC ITA ENG AC3 ITA ENG Sub PirateMKV.mkv
    Format : Matroska
    Format version : Version 4 / Version 2
    File size : 4.55 GiB
    Duration : 1h 29mn
    Overall bit rate : 7 279 Kbps
    Movie name : Madagascar 2 (2008) - PirateMKV
    Encoded date : UTC 2016-05-02 18:17:35
    Writing application : mkvmerge v9.1.0 ('Little Earthquakes') 64bit
    Writing library : libebml v1.3.3 libmatroska v1.4.4 / Lavf57.34.103

    Video
    ID : 1
    Format : HEVC
    Format/Info : High Efficiency Video Coding
    Format profile : [email protected]@Main
    Codec ID : V_MPEGH/ISO/HEVC
    Duration : 1h 29mn
    Bit rate : 5 996 Kbps
    Width : 1 920 pixels
    Height : 1 080 pixels
    Display aspect ratio : 16:9
    Frame rate mode : Constant
    Frame rate : 23.976 (24000/1001) fps
    Color space : YUV
    Chroma subsampling : 4:2:0
    Bit depth : 8 bits
    Bits/(Pixel*Frame) : 0.121
    Stream size : 3.74 GiB (82%)
    Writing library : x265 1.9:[Windows][GCC 5.2.0][64 bit] 8bit
    Encoding settings : wpp / ctu=64 / min-cu-size=8 / max-tu-size=32 / tu-intra-depth=3 / tu-inter-depth=3 / me=2 / subme=4 / merange=57 / no-rect / no-amp / max-merge=3 / temporal-mvp / no-early-skip / rdpenalty=0 / no-tskip / no-tskip-fast / strong-intra-smoothing / no-lossless / no-cu-lossless / no-constrained-intra / fast-intra / open-gop / no-temporal-layers / interlace=0 / keyint=250 / min-keyint=23 / scenecut=40 / rc-lookahead=40 / lookahead-slices=0 / bframes=8 / bframe-bias=0 / b-adapt=2 / ref=4 / limit-refs=1 / limit-modes / weightp / weightb / aq-mode=1 / qg-size=32 / aq-strength=2.00 / cbqpoffs=0 / crqpoffs=0 / rd=4 / psy-rd=1.00 / rdoq-level=0 / psy-rdoq=0.00 / signhide / deblock=-1:-1 / sao / no-sao-non-deblock / b-pyramid / no-cutree / no-intra-refresh / rc=crf / crf=21.0 / qcomp=0.60 / qpmin=0 / qpmax=51 / qpstep=4 / vbv-maxrate=12000 / vbv-bufsize=12000 / crf-max=0.0 / ipratio=1.40 / pbratio=1.30
    Default : Yes
    Forced : No
    Color range : Limited
    Matrix coefficients : BT.709

    Audio #1
    ID : 2
    Format : AC-3
    Format/Info : Audio Coding 3
    Mode extension : CM (complete main)
    Format settings, Endianness : Big
    Codec ID : A_AC3
    Duration : 1h 29mn
    Bit rate mode : Constant
    Bit rate : 640 Kbps
    Channel(s) : 6 channels
    Channel positions : Front: L C R, Side: L R, LFE
    Sampling rate : 48.0 KHz
    Frame rate : 31.250 fps (1536 spf)
    Compression mode : Lossy
    Stream size : 409 MiB (9%)
    Title : AC3 5.1
    Language : Italian
    Default : Yes
    Forced : No

    Audio #2
    ID : 3
    Format : AC-3
    Format/Info : Audio Coding 3
    Mode extension : CM (complete main)
    Format settings, Endianness : Big
    Codec ID : A_AC3
    Duration : 1h 29mn
    Bit rate mode : Constant
    Bit rate : 640 Kbps
    Channel(s) : 6 channels
    Channel positions : Front: L C R, Side: L R, LFE
    Sampling rate : 48.0 KHz
    Frame rate : 31.250 fps (1536 spf)
    Compression mode : Lossy
    Stream size : 409 MiB (9%)
    Title : AC3 5.1
    Language : English
    Default : No
    Forced : No

    Text #1
    ID : 4
    Format : UTF-8
    Codec ID : S_TEXT/UTF8
    Codec ID/Info : UTF-8 Plain Text
    Duration : 1s 918ms
    Bit rate : 87 bps
    Count of elements : 1
    Stream size : 21.0 Bytes (0%)
    Title : Forced
    Language : Italian
    Default : Yes
    Forced : Yes

    Text #2
    ID : 5
    Format : UTF-8
    Codec ID : S_TEXT/UTF8
    Codec ID/Info : UTF-8 Plain Text
    Duration : 2s 2ms
    Bit rate : 71 bps
    Count of elements : 1
    Stream size : 18.0 Bytes (0%)
    Title : Forced
    Language : English
    Default : No
    Forced : No

    Text #3
    ID : 6
    Format : UTF-8
    Codec ID : S_TEXT/UTF8
    Codec ID/Info : UTF-8 Plain Text
    Duration : 1h 28mn
    Bit rate : 63 bps
    Count of elements : 1255
    Stream size : 41.5 KiB (0%)
    Title : Normal
    Language : Italian
    Default : No
    Forced : No

    Text #4
    ID : 7
    Format : UTF-8
    Codec ID : S_TEXT/UTF8
    Codec ID/Info : UTF-8 Plain Text
    Duration : 1h 19mn
    Bit rate : 72 bps
    Count of elements : 1263
    Stream size : 41.9 KiB (0%)
    Title : Normal
    Language : English
    Default : No
    Forced : No

    Menu
    00:00:00.000 : en:00:00:00.000
    00:04:15.881 : en:00:04:15.881
    00:06:46.615 : en:00:06:46.615
    00:09:25.774 : en:00:09:25.774
    00:15:51.951 : en:00:15:51.951
    00:17:34.762 : en:00:17:34.762
    00:20:26.934 : en:00:20:26.934
    00:23:57.353 : en:00:23:57.353
    00:28:03.557 : en:00:28:03.557
    00:30:58.899 : en:00:30:58.899
    00:33:52.906 : en:00:33:52.906
    00:35:19.909 : en:00:35:19.909
    00:38:15.418 : en:00:38:15.418
    00:42:59.911 : en:00:42:59.911
    00:45:35.942 : en:00:45:35.942
    00:49:22.918 : en:00:49:22.918
    00:52:17.259 : en:00:52:17.259
    00:55:17.773 : en:00:55:17.773
    00:57:59.810 : en:00:57:59.810
    01:03:28.638 : en:01:03:28.638
    01:06:33.948 : en:01:06:33.948
    01:15:17.888 : en:01:15:17.888
    01:19:48.075 : en:01:19:48.075






    ** Contenuto Nascosto: Schiaccia il bottone RINGRAZIA per visualizzare i link **


    Password: W9uf3209bh0Ped970N
  2. 6 utenti hanno ringraziato PirateMKV per ciò che ha scritto.

    deckard69 (17.12.2016), enzo269 (30.07.2016), ivanverona1 (2 Giorni Fa), Menarello (15.10.2016), mongoporno (2 Giorni Fa), rulkks (11.08.2016)

Permessi di Scrittura

  • Tu non puoi inviare nuove discussioni
  • Tu non puoi inviare risposte
  • Tu non puoi inviare allegati
  • Tu non puoi modificare i tuoi messaggi
  •