HomePage - Come attivare il proprio account - Regole del Forum

HOT NEWS!!!

Madagascar (2005) BDRip 720p HEVC ITA ENG AC3 ITA ENG Sub PirateMKV

Rogue one-a Star Wars story (2016)


Rogue One A Star Wars Story il primo capitolo di una nuova avventurosa serie cinematografica che esplora i personaggi e gli eventi che ruotano intorno alla saga di Guerre Stellari.


1080p
720p
UNTOUCHED-1080p
BLURAY FULL
BLURAY FULL 3D
Madagascar (2005) BDRip 720p HEVC ITA ENG AC3 ITA ENG Sub PirateMKV


Avviso a tutti i lettori di mondowarezz.Le sezioni Ebook,Quotidiani e Riviste.Sono momentaneamente chiuse.Vi preghiamo di non intasare la chatbox con le stesse domande.Grazie
Risultati da 1 a 1 di 1
  1. #1
    Status
    Offline
    L'avatar di PirateMKV
    Data Registrazione

    08.04.2015

    Messaggi

    2,781

    Ha ringraziato
    85 volte
    Ha Ricevuto 14,379 ringraziamenti in 2,506 discussioni volte
    Taggato
    1 Post(s)

    Madagascar (2005) BDRip 720p HEVC ITA ENG AC3 ITA ENG Sub PirateMKV






    Titolo: Madagascar
    Nazione: USA
    Anno: 2005
    Genere: Animation, Adventure, Comedy
    Durata: 86 min
    Regia: Eric Darnell, Tom McGrath
    Cast: Ben Stiller, Chris Rock, David Schwimmer, Jada Pinkett Smith


    Giusto per togliersi il dubbio: Madagascar non solo di gran lunga il migliore dei film Dreamworks (sotto certi aspetti supera anche la bilogia dell'orco verde), ma si mette in diretta concorrenza con le recenti produzioni del team di Lassiter, in campi in cui il predominio Pixar appariva, fino a ieri, oggettivamente irraggiungibile: spessore psicologico dei personaggi, plot e regia. Piccolo miracolo di ironia surreale, Madagascar parte da un assunto comico molto elementare, quello del "pesce fuor d'acqua", del personaggio che si trova involontariamente catapultato in una realt che non gli propria, in questo caso un eterogeneo gruppetto di animali selvaggi che, imbolsiti dalla comoda vita da zoo, si ritrovano, senza volerlo, dalla giungla urbana di New York a quella, ancora pi frenetica e pericolosa, dell'isola africana. Finezze a parte (la location infatti non certamente scelta a caso, visto che, proprio in quanto isola, il Madagascar caratterizzato da una flora ed una fauna complemente diversa da quella africana ed lontanissima dalla visione stereotipata e tradizionale del continente nero, tanto che, ad esempio, non vi si trovano realmente n leoni, n zebre), la produzione Dreamworks, poggia quasi completamente sui meravigliosi personaggi, cui una sceneggiatura leggera e tagliente conferisce un 'aura quasi mitica ed indimenticabile. L'eterogeneo quartetto di protagonisti (una ippopotama, una zebra, una giraffa e l'inevitabile leone), decisamente ben caratterizzato sia sotto un profilo psicologico, visto che ognuno ha una caratteristica peculiare (eccezionale la giraffa ipocondriaca) che sotto l'aspetto comico, visto che il team offre una pletora di gag, senza dover ricorrere continuamente alla citazione metacinematografica, tranne che in un paio di occasioni (perlatro molto ben riuscite e divertenti).

    Nome Versione: PirateMKV
    Fonte Video: BluRay
    Fonte Audio: BluRay



     






     

    General
    Unique ID : 207981578199566354260230881791563944672 (0x9C77CB80C3CEB941BDB586B8CC1652E0)
    Complete name : C:\Users\Administrator\Downloads\madagascar\1\Mada gascar (2005) BDRip 720p HEVC ITA ENG AC3 ITA ENG Sub PirateMKV.mkv
    Format : Matroska
    Format version : Version 4 / Version 2
    File size : 2.38 GiB
    Duration : 1h 25mn
    Overall bit rate : 3 966 Kbps
    Movie name : Madagascar (2005) - PirateMKV
    Encoded date : UTC 2016-05-02 18:15:08
    Writing application : mkvmerge v9.1.0 ('Little Earthquakes') 64bit
    Writing library : libebml v1.3.3 libmatroska v1.4.4 / Lavf57.34.103

    Video
    ID : 1
    Format : HEVC
    Format/Info : High Efficiency Video Coding
    Format profile : [email protected]@Main
    Codec ID : V_MPEGH/ISO/HEVC
    Duration : 1h 25mn
    Bit rate : 2 684 Kbps
    Width : 1 280 pixels
    Height : 720 pixels
    Display aspect ratio : 16:9
    Frame rate mode : Constant
    Frame rate : 23.976 (24000/1001) fps
    Color space : YUV
    Chroma subsampling : 4:2:0
    Bit depth : 8 bits
    Bits/(Pixel*Frame) : 0.121
    Stream size : 1.61 GiB (68%)
    Writing library : x265 1.9:[Windows][GCC 5.2.0][64 bit] 8bit
    Encoding settings : wpp / ctu=64 / min-cu-size=8 / max-tu-size=32 / tu-intra-depth=3 / tu-inter-depth=3 / me=2 / subme=4 / merange=57 / no-rect / no-amp / max-merge=3 / temporal-mvp / no-early-skip / rdpenalty=0 / no-tskip / no-tskip-fast / strong-intra-smoothing / no-lossless / no-cu-lossless / no-constrained-intra / fast-intra / open-gop / no-temporal-layers / interlace=0 / keyint=250 / min-keyint=23 / scenecut=40 / rc-lookahead=40 / lookahead-slices=0 / bframes=8 / bframe-bias=0 / b-adapt=2 / ref=5 / limit-refs=1 / limit-modes / weightp / weightb / aq-mode=1 / qg-size=32 / aq-strength=2.00 / cbqpoffs=0 / crqpoffs=0 / rd=4 / psy-rd=1.00 / rdoq-level=0 / psy-rdoq=0.00 / signhide / deblock=-1:-1 / sao / no-sao-non-deblock / b-pyramid / no-cutree / no-intra-refresh / rc=crf / crf=20.4 / qcomp=0.60 / qpmin=0 / qpmax=51 / qpstep=4 / vbv-maxrate=12000 / vbv-bufsize=12000 / crf-max=0.0 / ipratio=1.40 / pbratio=1.30
    Default : Yes
    Forced : No
    Color range : Limited
    Matrix coefficients : BT.709

    Audio #1
    ID : 2
    Format : AC-3
    Format/Info : Audio Coding 3
    Mode extension : CM (complete main)
    Format settings, Endianness : Big
    Codec ID : A_AC3
    Duration : 1h 25mn
    Bit rate mode : Constant
    Bit rate : 640 Kbps
    Channel(s) : 6 channels
    Channel positions : Front: L C R, Side: L R, LFE
    Sampling rate : 48.0 KHz
    Frame rate : 31.250 fps (1536 spf)
    Compression mode : Lossy
    Stream size : 394 MiB (16%)
    Title : AC3 5.1
    Language : Italian
    Default : Yes
    Forced : No

    Audio #2
    ID : 3
    Format : AC-3
    Format/Info : Audio Coding 3
    Mode extension : CM (complete main)
    Format settings, Endianness : Big
    Codec ID : A_AC3
    Duration : 1h 25mn
    Bit rate mode : Constant
    Bit rate : 640 Kbps
    Channel(s) : 6 channels
    Channel positions : Front: L C R, Side: L R, LFE
    Sampling rate : 48.0 KHz
    Frame rate : 31.250 fps (1536 spf)
    Compression mode : Lossy
    Stream size : 394 MiB (16%)
    Title : AC3 5.1
    Language : English
    Default : No
    Forced : No

    Text #1
    ID : 4
    Format : UTF-8
    Codec ID : S_TEXT/UTF8
    Codec ID/Info : UTF-8 Plain Text
    Duration : 12mn 19s
    Bit rate : 0 bps
    Count of elements : 2
    Stream size : 31.0 Bytes (0%)
    Title : Forced
    Language : Italian
    Default : Yes
    Forced : Yes

    Text #2
    ID : 5
    Format : UTF-8
    Codec ID : S_TEXT/UTF8
    Codec ID/Info : UTF-8 Plain Text
    Duration : 1h 24mn
    Bit rate : 63 bps
    Count of elements : 1217
    Stream size : 39.3 KiB (0%)
    Title : Normal
    Language : Italian
    Default : No
    Forced : No

    Text #3
    ID : 6
    Format : UTF-8
    Codec ID : S_TEXT/UTF8
    Codec ID/Info : UTF-8 Plain Text
    Duration : 1h 17mn
    Bit rate : 70 bps
    Count of elements : 1169
    Stream size : 40.2 KiB (0%)
    Title : Normal
    Language : English
    Default : No
    Forced : No

    Menu
    00:00:00.000 : en:00:00:00.000
    00:05:34.167 : en:00:05:34.167
    00:08:35.473 : en:00:08:35.473
    00:12:40.093 : en:00:12:40.093
    00:17:56.867 : en:00:17:56.867
    00:22:32.685 : en:00:22:32.685
    00:26:56.615 : en:00:26:56.615
    00:30:57.856 : en:00:30:57.856
    00:35:30.879 : en:00:35:30.879
    00:40:06.571 : en:00:40:06.571
    00:44:34.797 : en:00:44:34.797
    00:48:52.346 : en:00:48:52.346
    00:52:18.844 : en:00:52:18.844
    00:57:15.557 : en:00:57:15.557
    01:02:16.733 : en:01:02:16.733
    01:06:56.554 : en:01:06:56.554
    01:12:37.103 : en:01:12:37.103
    01:16:20.117 : en:01:16:20.117
    01:18:18.652 : en:01:18:18.652
    01:19:10.037 : en:01:19:10.037






    ** Contenuto Nascosto: Schiaccia il bottone RINGRAZIA per visualizzare i link **


    Password: W9uf3209bh0Ped970N
  2. 8 utenti hanno ringraziato PirateMKV per ci che ha scritto.

    albert-one (12.06.2016), Coby76 (03.02.2017), keijimaeda2013 (21.11.2016), madido (10.05.2016), marbon76 (21.08.2016), nemo (3 Settimane Fa), ronaldo (26.12.2016), tamgiucla (17.06.2016)

Permessi di Scrittura

  • Tu non puoi inviare nuove discussioni
  • Tu non puoi inviare risposte
  • Tu non puoi inviare allegati
  • Tu non puoi modificare i tuoi messaggi
  •