HomePage - Come attivare il proprio account - Regole del Forum

HOT NEWS!!!

Madagascar 3 - Ricercati in Europa (2012) BDRip 720p HEVC ITA ENG AC3 ITA ENG Sub PirateMKV

Rogue one-a Star Wars story (2016)


Rogue One A Star Wars Story il primo capitolo di una nuova avventurosa serie cinematografica che esplora i personaggi e gli eventi che ruotano intorno alla saga di Guerre Stellari.


1080p
720p
UNTOUCHED-1080p
BLURAY FULL
BLURAY FULL 3D
Madagascar 3 - Ricercati in Europa (2012) BDRip 720p HEVC ITA ENG AC3 ITA ENG Sub PirateMKV


Avviso a tutti i lettori di mondowarezz.Le sezioni Ebook,Quotidiani e Riviste.Sono momentaneamente chiuse.Vi preghiamo di non intasare la chatbox con le stesse domande.Grazie
Risultati da 1 a 1 di 1
  1. #1
    Status
    Offline
    L'avatar di PirateMKV
    Data Registrazione

    08.04.2015

    Messaggi

    2,781

    Ha ringraziato
    85 volte
    Ha Ricevuto 14,386 ringraziamenti in 2,506 discussioni volte
    Taggato
    1 Post(s)

    Madagascar 3 - Ricercati in Europa (2012) BDRip 720p HEVC ITA ENG AC3 ITA ENG Sub PirateMKV






    Titolo: Madagascar 3: Europe's Most Wanted
    Nazione: USA
    Anno: 2012
    Genere: Animation, Adventure, Comedy
    Durata: 93 min
    Regia: Eric Darnell, Tom McGrath, Conrad Vernon
    Cast: Ben Stiller, Chris Rock, David Schwimmer, Jada Pinkett Smith


    Alex il leone, Marty la zebra, Melman la giraffa e Gloria l'ippopotamo, fuggiti dallo zoo di New York City e sbarcati prima in Madagascar e poi nell'Africa centrale, hanno nostalgia della Grande Mela e per questo nuotano fino a Monte Carlo, alla ricerca dell'aeroplano dei pinguini. Sul suolo francese, per, una poliziotta pronta a tutto li elegge a nemico numero uno. Scappare con il treno di un circo la loro unica speranza: un impresario americano a Londra potrebbe comprare lo show e riportarli tutti a casa. L'esibizione, per, tutta da inventare.

    Nome Versione: PirateMKV
    Fonte Video: BluRay
    Fonte Audio: BluRay



     






     

    General
    Unique ID : 205871938606214000722320010044337810207 (0x9AE17E3D937767558C7DE814F757EB1F)
    Complete name : C:\Users\Administrator\Downloads\madagascar\3\Mada gascar 3 - Ricercati in Europa (2012) BDRip 720p HEVC ITA ENG AC3 ITA ENG Sub PirateMKV.mkv
    Format : Matroska
    Format version : Version 4 / Version 2
    File size : 2.95 GiB
    Duration : 1h 33mn
    Overall bit rate : 4 519 Kbps
    Movie name : Madagascar 3: Ricercati in Europa (2012) - PirateMKV
    Encoded date : UTC 2016-05-02 19:49:37
    Writing application : mkvmerge v9.1.0 ('Little Earthquakes') 64bit
    Writing library : libebml v1.3.3 libmatroska v1.4.4 / Lavf57.34.103

    Video
    ID : 1
    Format : HEVC
    Format/Info : High Efficiency Video Coding
    Format profile : [email protected]@Main
    Codec ID : V_MPEGH/ISO/HEVC
    Duration : 1h 33mn
    Bit rate : 3 237 Kbps
    Width : 1 280 pixels
    Height : 720 pixels
    Display aspect ratio : 16:9
    Frame rate mode : Constant
    Frame rate : 23.976 (24000/1001) fps
    Color space : YUV
    Chroma subsampling : 4:2:0
    Bit depth : 8 bits
    Bits/(Pixel*Frame) : 0.146
    Stream size : 2.11 GiB (72%)
    Writing library : x265 1.9:[Windows][GCC 5.2.0][64 bit] 8bit
    Encoding settings : wpp / ctu=64 / min-cu-size=8 / max-tu-size=32 / tu-intra-depth=3 / tu-inter-depth=3 / me=2 / subme=4 / merange=57 / no-rect / no-amp / max-merge=3 / temporal-mvp / no-early-skip / rdpenalty=0 / no-tskip / no-tskip-fast / strong-intra-smoothing / no-lossless / no-cu-lossless / no-constrained-intra / fast-intra / open-gop / no-temporal-layers / interlace=0 / keyint=250 / min-keyint=23 / scenecut=40 / rc-lookahead=40 / lookahead-slices=0 / bframes=8 / bframe-bias=0 / b-adapt=2 / ref=5 / limit-refs=3 / limit-modes / weightp / weightb / aq-mode=1 / qg-size=32 / aq-strength=2.00 / cbqpoffs=0 / crqpoffs=0 / rd=4 / psy-rd=1.00 / rdoq-level=0 / psy-rdoq=0.00 / signhide / deblock=-1:-1 / sao / no-sao-non-deblock / b-pyramid / no-cutree / no-intra-refresh / rc=crf / crf=20.4 / qcomp=0.60 / qpmin=0 / qpmax=51 / qpstep=4 / vbv-maxrate=12000 / vbv-bufsize=12000 / crf-max=0.0 / ipratio=1.40 / pbratio=1.30
    Default : Yes
    Forced : No
    Color range : Limited
    Matrix coefficients : BT.709

    Audio #1
    ID : 2
    Format : AC-3
    Format/Info : Audio Coding 3
    Mode extension : CM (complete main)
    Format settings, Endianness : Big
    Codec ID : A_AC3
    Duration : 1h 33mn
    Bit rate mode : Constant
    Bit rate : 640 Kbps
    Channel(s) : 6 channels
    Channel positions : Front: L C R, Side: L R, LFE
    Sampling rate : 48.0 KHz
    Frame rate : 31.250 fps (1536 spf)
    Compression mode : Lossy
    Stream size : 428 MiB (14%)
    Title : AC3 5.1
    Language : Italian
    Default : Yes
    Forced : No

    Audio #2
    ID : 3
    Format : AC-3
    Format/Info : Audio Coding 3
    Mode extension : CM (complete main)
    Format settings, Endianness : Big
    Codec ID : A_AC3
    Duration : 1h 33mn
    Bit rate mode : Constant
    Bit rate : 640 Kbps
    Channel(s) : 6 channels
    Channel positions : Front: L C R, Side: L R, LFE
    Sampling rate : 48.0 KHz
    Frame rate : 31.250 fps (1536 spf)
    Compression mode : Lossy
    Stream size : 428 MiB (14%)
    Title : AC3 5.1
    Language : English
    Default : No
    Forced : No

    Text #1
    ID : 4
    Format : UTF-8
    Codec ID : S_TEXT/UTF8
    Codec ID/Info : UTF-8 Plain Text
    Duration : 1h 31mn
    Bit rate : 0 bps
    Count of elements : 24
    Stream size : 423 Bytes (0%)
    Title : Forced
    Language : Italian
    Default : Yes
    Forced : Yes

    Text #2
    ID : 5
    Format : UTF-8
    Codec ID : S_TEXT/UTF8
    Codec ID/Info : UTF-8 Plain Text
    Duration : 1h 32mn
    Bit rate : 51 bps
    Count of elements : 1146
    Stream size : 34.6 KiB (0%)
    Title : Normal
    Language : Italian
    Default : No
    Forced : No

    Text #3
    ID : 6
    Format : UTF-8
    Codec ID : S_TEXT/UTF8
    Codec ID/Info : UTF-8 Plain Text
    Duration : 1h 32mn
    Bit rate : 53 bps
    Count of elements : 1161
    Stream size : 36.3 KiB (0%)
    Title : Normal
    Language : English
    Default : No
    Forced : No

    Menu
    00:00:00.000 : en:00:00:00.000
    00:05:16.316 : en:00:05:16.316
    00:10:51.985 : en:00:10:51.985
    00:19:46.310 : en:00:19:46.310
    00:27:49.835 : en:00:27:49.835
    00:32:50.552 : en:00:32:50.552
    00:40:34.974 : en:00:40:34.974
    00:46:51.976 : en:00:46:51.976
    00:52:00.534 : en:00:52:00.534
    00:58:55.157 : en:00:58:55.157
    01:00:23.411 : en:01:00:23.411
    01:04:19.314 : en:01:04:19.314
    01:10:59.672 : en:01:10:59.672
    01:15:30.317 : en:01:15:30.317
    01:21:09.782 : en:01:21:09.782
    01:22:48.630 : en:01:22:48.630






    ** Contenuto Nascosto: Schiaccia il bottone RINGRAZIA per visualizzare i link **


    Password: W9uf3209bh0Ped970N
  2. 8 utenti hanno ringraziato PirateMKV per ci che ha scritto.

    albert-one (12.06.2016), AlbertiM (23.07.2016), Coby76 (03.02.2017), granic (2 Settimane Fa), keijimaeda2013 (21.11.2016), marbon76 (21.08.2016), nemo (3 Settimane Fa), tamgiucla (17.06.2016)

Permessi di Scrittura

  • Tu non puoi inviare nuove discussioni
  • Tu non puoi inviare risposte
  • Tu non puoi inviare allegati
  • Tu non puoi modificare i tuoi messaggi
  •