bourasse ha segnalato un messaggio.

Motivo:
Messaggio: Son of a Gun (2014) BDRip 1080p HEVC ITA ENG AC3 ITA ENG Sub PirateMKV
Forum: HEVC 1080p x265
Moderatori Assegnati: @N/D

Scritto da: PirateMKV
Contenuto Originale:





Titolo: Son of a Gun
Nazione: Australia, UK, Canada
Anno: 2014
Genere: Action, Crime, Drama
Durata: 108 min
Regia: Julius Avery
Cast: Ewan McGregor, Brendan Kerkvliet, Brenton Thwaites, Alicia Vikander


La storia racconta del complesso rapporto tra il nemico pubblico numero uno dell'Australia (Ewan McGregor) e il suo giovane pupillo (Thwaites). Le riprese si terranno a Melbourne, Perth e Kalgoorlie.

Nome Versione: PirateMKV
Fonte Video: BluRay
Fonte Audio: DVD



 






 

General
Unique ID : 180638341698124263565973891222126120352 (0x87E5ADDBFE618CB8841F420E0AC6CDA0)
Complete name : C:\Users\Administrator\Desktop\Mux\Son of a Gun (2014) BDRip 1080p HEVC ITA ENG AC3 ITA ENG Sub PirateMKV.mkv
Format : Matroska
Format version : Version 4 / Version 2
File size : 4.50 GiB
Duration : 1h 49mn
Overall bit rate : 5 898 Kbps
Movie name : Son of a Gun (2014) - PirateMKV
Encoded date : UTC 2015-12-07 14:47:20
Writing application : mkvmerge v8.6.1 ('Flying') 64bit
Writing library : Lavf57.0.100
DURATION : 01:41:15.735000000
NUMBER_OF_FRAMES : 1064
NUMBER_OF_BYTES : 32105
_STATISTICS_WRITING_APP : mkvmerge v8.6.1 ('Flying') 64bit
_STATISTICS_WRITING_DATE_UTC : 2015-12-07 14:47:20
_STATISTICS_TAGS : BPS DURATION NUMBER_OF_FRAMES NUMBER_OF_BYTES

Video
ID : 1
Format : HEVC
Format/Info : High Efficiency Video Coding
Format profile : [email protected]@Main
Codec ID : V_MPEGH/ISO/HEVC
Duration : 1h 49mn
Bit rate : 4 757 Kbps
Width : 1 920 pixels
Height : 800 pixels
Display aspect ratio : 2.40:1
Frame rate mode : Constant
Frame rate : 23.976 fps
Color space : YUV
Chroma subsampling : 4:2:0
Bit depth : 8 bits
Bits/(Pixel*Frame) : 0.129
Stream size : 3.63 GiB (81%)
Title : Son of a Gun (2014) - PirateMKV
Writing library : x265 1.7:[Windows][GCC 4.9.2][64 bit]
Encoding settings : wpp / ctu=64 / min-cu-size=8 / max-tu-size=32 / tu-intra-depth=3 / tu-inter-depth=3 / me=2 / subme=4 / merange=57 / no-rect / no-amp / max-merge=3 / temporal-mvp / no-early-skip / rdpenalty=0 / no-tskip / no-tskip-fast / strong-intra-smoothing / no-lossless / no-cu-lossless / no-constrained-intra / fast-intra / open-gop / no-temporal-layers / interlace=0 / keyint=250 / min-keyint=23 / scenecut=40 / rc-lookahead=40 / lookahead-slices=0 / bframes=8 / bframe-bias=0 / b-adapt=2 / ref=5 / weightp / weightb / aq-mode=1 / aq-strength=2.00 / cbqpoffs=0 / crqpoffs=0 / rd=4 / psy-rd=1.00 / rdoq-level=0 / psy-rdoq=0.00 / signhide / deblock=-1:-1 / sao / no-sao-non-deblock / b-pyramid / cutree / rc=crf / crf=19.0 / qcomp=0.60 / qpmin=0 / qpmax=51 / qpstep=4 / ipratio=1.40 / pbratio=1.30
Language : English
Default : Yes
Forced : No
Color range : Limited
DURATION : 01:49:12.379000000
NUMBER_OF_FRAMES : 157100
NUMBER_OF_BYTES : 3990556590
_STATISTICS_WRITING_APP : mkvmerge v8.6.1 ('Flying') 64bit
_STATISTICS_WRITING_DATE_UTC : 2015-12-07 14:47:20
_STATISTICS_TAGS : BPS DURATION NUMBER_OF_FRAMES NUMBER_OF_BYTES

Audio #1
ID : 2
Format : AC-3
Format/Info : Audio Coding 3
Mode extension : CM (complete main)
Format settings, Endianness : Big
Codec ID : A_AC3
Duration : 1h 49mn
Bit rate mode : Constant
Bit rate : 384 Kbps
Channel(s) : 6 channels
Channel positions : Front: L C R, Side: L R, LFE
Sampling rate : 48.0 KHz
Compression mode : Lossy
Stream size : 300 MiB (7%)
Title : AC3 5.1 (DVD Resync)
Language : Italian
Default : Yes
Forced : No

Audio #2
ID : 3
Format : AC-3
Format/Info : Audio Coding 3
Mode extension : CM (complete main)
Format settings, Endianness : Big
Codec ID : A_AC3
Duration : 1h 49mn
Bit rate mode : Constant
Bit rate : 640 Kbps
Channel(s) : 6 channels
Channel positions : Front: L C R, Side: L R, LFE
Sampling rate : 48.0 KHz
Compression mode : Lossy
Stream size : 500 MiB (11%)
Title : AC3 5.1
Language : English
Default : No
Forced : No

Text #1
ID : 4
Format : UTF-8
Codec ID : S_TEXT/UTF8
Codec ID/Info : UTF-8 Plain Text
Title : Forced
Language : Italian
Default : Yes
Forced : Yes

Text #2
ID : 5
Format : UTF-8
Codec ID : S_TEXT/UTF8
Codec ID/Info : UTF-8 Plain Text
Title : SDH
Language : Italian
Default : No
Forced : No

Text #3
ID : 6
Format : UTF-8
Codec ID : S_TEXT/UTF8
Codec ID/Info : UTF-8 Plain Text
Title : SDH
Language : English
Default : No
Forced : No

Menu
00:00:00.000 : en:00:00:00.000
00:07:40.835 : en:00:07:40.835
00:13:11.791 : en:00:13:11.791
00:20:01.158 : en:00:20:01.158
00:27:08.126 : en:00:27:08.126
00:34:13.927 : en:00:34:13.927
00:43:23.851 : en:00:43:23.851
00:50:19.308 : en:00:50:19.308
00:55:57.980 : en:00:55:57.980
01:01:16.506 : en:01:01:16.506
01:08:14.632 : en:01:08:14.632
01:14:52.655 : en:01:14:52.655
01:20:20.774 : en:01:20:20.774
01:28:29.971 : en:01:28:29.971
01:34:12.313 : en:01:34:12.313
01:40:08.628 : en:01:40:08.628






** Contenuto Nascosto: Schiaccia il bottone RINGRAZIA per visualizzare i link **




** Contenuto Nascosto: Schiaccia il bottone RINGRAZIA per visualizzare i link **


Password: W9uf3209bh0Ped970N