HomePage - Come attivare il proprio account - Regole del Forum

HOT NEWS!!!

Mission - Impossible (1996) BDRip 1080p HEVC ITA ENG AC3 ITA ENG Sub PirateMKV

Oceania (2016)


Una vivace adolescente di nome Vaiana s’imbarca in una coraggiosa missione per salvare il suo popolo. Durante il suo viaggio, s’imbatterà nel semidio in disgrazia Maui che la guiderà nella sua ricerca per diventare una grande esploratrice.


1080p
720p
UNTOUCHED-1080p
BLURAY FULL
BLURAY FULL 3D
Mission - Impossible (1996) BDRip 1080p HEVC ITA ENG AC3 ITA ENG Sub PirateMKV


Avviso a tutti i lettori di mondowarezz.Le sezioni Ebook,Quotidiani e Riviste.Sono momentaneamente chiuse.Vi preghiamo di non intasare la chatbox con le stesse domande.Grazie
Risultati da 1 a 1 di 1
  1. #1
    Status
    Offline
    L'avatar di PirateMKV
    Data Registrazione

    08.04.2015

    Messaggi

    2,781

    Ha ringraziato
    85 volte
    Ha Ricevuto 15,064 ringraziamenti in 2,532 discussioni volte
    Taggato
    1 Post(s)

    Mission - Impossible (1996) BDRip 1080p HEVC ITA ENG AC3 ITA ENG Sub PirateMKV






    Titolo: Mission: Impossible
    Nazione: USA
    Anno: 1996
    Genere: Action, Adventure, Thriller
    Durata: 110 min
    Regia: Brian De Palma
    Cast: Tom Cruise, Jon Voight, Emmanuelle Béart, Henry Czerny


    Il gruppo di "Mission impossible" è impiegato in un incarico impossibile, appunto. Muoiono tutti meno il bel Cruise, che scopre essersi trattato di un grande trucco solo per scoprire un traditore interno. Fra Praga, Londra, Langley (sede della CIA) vive l'intreccio misto fra James Bond, Die Hard e...il M.I. televisivo. Elettronica, Internet, elicotteri che entrano in gallerie. Insomma gli immancabili effetti speciali col valore aggiunto di un regista che ha sempre avuto qualcosa in più. Destinato a un grande successo già prima dell'approdo nelle sale. Gradevole anche se sopravvalutato. Tutto sommato Cruise non vale Connery. Registriamo il passaggio della Béart attraverso il film: a disagio come un fantasma al sole, monocorde e monoespressiva.

    Nome Versione: PirateMKV
    Fonte Video: BluRay
    Fonte Audio: BluRay



     






     

    General
    Unique ID : 222600086915761453319653392342826996797 (0xA77737A110F8C2888DF83DF694E5D43D)
    Complete name : C:\Users\Administrator\Downloads\MI1\Mission - Impossible (1996) BDRip 1080p HEVC ITA ENG AC3 ITA ENG Sub PirateMKV.mkv
    Format : Matroska
    Format version : Version 4 / Version 2
    File size : 4.34 GiB
    Duration : 1h 50mn
    Overall bit rate : 5 644 Kbps
    Movie name : Mission: Impossible (1996) - PirateMKV
    Encoded date : UTC 2016-04-26 15:12:31
    Writing application : mkvmerge v9.1.0 ('Little Earthquakes') 64bit
    Writing library : libebml v1.3.3 libmatroska v1.4.4 / Lavf57.34.103

    Video
    ID : 1
    Format : HEVC
    Format/Info : High Efficiency Video Coding
    Format profile : [email protected]@Main
    Codec ID : V_MPEGH/ISO/HEVC
    Duration : 1h 50mn
    Bit rate : 4 361 Kbps
    Width : 1 916 pixels
    Height : 796 pixels
    Display aspect ratio : 2.40:1
    Frame rate mode : Constant
    Frame rate : 23.976 (24000/1001) fps
    Color space : YUV
    Chroma subsampling : 4:2:0
    Bit depth : 8 bits
    Bits/(Pixel*Frame) : 0.119
    Stream size : 3.36 GiB (77%)
    Writing library : x265 1.9:[Windows][GCC 5.2.0][64 bit] 8bit
    Encoding settings : wpp / ctu=64 / min-cu-size=8 / max-tu-size=32 / tu-intra-depth=3 / tu-inter-depth=3 / me=2 / subme=4 / merange=57 / no-rect / no-amp / max-merge=3 / temporal-mvp / no-early-skip / rdpenalty=0 / no-tskip / no-tskip-fast / strong-intra-smoothing / no-lossless / no-cu-lossless / no-constrained-intra / fast-intra / open-gop / no-temporal-layers / interlace=0 / keyint=250 / min-keyint=23 / scenecut=40 / rc-lookahead=40 / lookahead-slices=0 / bframes=8 / bframe-bias=0 / b-adapt=2 / ref=5 / limit-refs=1 / limit-modes / weightp / weightb / aq-mode=1 / qg-size=32 / aq-strength=2.00 / cbqpoffs=0 / crqpoffs=0 / rd=4 / psy-rd=1.00 / rdoq-level=0 / psy-rdoq=0.00 / signhide / deblock=-1:-1 / sao / no-sao-non-deblock / b-pyramid / no-cutree / no-intra-refresh / rc=crf / crf=22.9 / qcomp=0.60 / qpmin=0 / qpmax=51 / qpstep=4 / vbv-maxrate=12000 / vbv-bufsize=12000 / crf-max=0.0 / ipratio=1.40 / pbratio=1.30
    Language : English
    Default : Yes
    Forced : No
    Color range : Limited
    Matrix coefficients : BT.709

    Audio #1
    ID : 2
    Format : AC-3
    Format/Info : Audio Coding 3
    Mode extension : CM (complete main)
    Format settings, Endianness : Big
    Codec ID : A_AC3
    Duration : 1h 50mn
    Bit rate mode : Constant
    Bit rate : 640 Kbps
    Channel(s) : 6 channels
    Channel positions : Front: L C R, Side: L R, LFE
    Sampling rate : 48.0 KHz
    Frame rate : 31.250 fps (1536 spf)
    Compression mode : Lossy
    Stream size : 505 MiB (11%)
    Title : AC3 5.1
    Language : Italian
    Default : Yes
    Forced : No

    Audio #2
    ID : 3
    Format : AC-3
    Format/Info : Audio Coding 3
    Mode extension : CM (complete main)
    Format settings, Endianness : Big
    Codec ID : A_AC3
    Duration : 1h 50mn
    Bit rate mode : Constant
    Bit rate : 640 Kbps
    Channel(s) : 6 channels
    Channel positions : Front: L C R, Side: L R, LFE
    Sampling rate : 48.0 KHz
    Frame rate : 31.250 fps (1536 spf)
    Compression mode : Lossy
    Stream size : 505 MiB (11%)
    Title : AC3 5.1
    Language : English
    Default : No
    Forced : No

    Text #1
    ID : 4
    Format : UTF-8
    Codec ID : S_TEXT/UTF8
    Codec ID/Info : UTF-8 Plain Text
    Duration : 1h 40mn
    Bit rate : 1 bps
    Count of elements : 35
    Stream size : 980 Bytes (0%)
    Title : Forced
    Language : Italian
    Default : Yes
    Forced : Yes

    Text #2
    ID : 5
    Format : UTF-8
    Codec ID : S_TEXT/UTF8
    Codec ID/Info : UTF-8 Plain Text
    Duration : 1mn 30s
    Bit rate : 31 bps
    Count of elements : 20
    Stream size : 354 Bytes (0%)
    Title : Forced
    Language : English
    Default : No
    Forced : No

    Text #3
    ID : 6
    Format : UTF-8
    Codec ID : S_TEXT/UTF8
    Codec ID/Info : UTF-8 Plain Text
    Duration : 1h 49mn
    Bit rate : 34 bps
    Count of elements : 661
    Stream size : 27.8 KiB (0%)
    Title : Normal
    Language : Italian
    Default : No
    Forced : No

    Text #4
    ID : 7
    Format : UTF-8
    Codec ID : S_TEXT/UTF8
    Codec ID/Info : UTF-8 Plain Text
    Duration : 1h 45mn
    Bit rate : 41 bps
    Count of elements : 954
    Stream size : 31.7 KiB (0%)
    Title : Normal
    Language : English
    Default : No
    Forced : No

    Menu
    00:00:00.000 : en:00:00:00.000
    00:03:00.972 : en:00:03:00.972
    00:10:44.727 : en:00:10:44.727
    00:26:43.811 : en:00:26:43.811
    00:32:21.481 : en:00:32:21.481
    00:39:50.388 : en:00:39:50.388
    00:49:39.143 : en:00:49:39.143
    00:55:45.634 : en:00:55:45.634
    01:12:25.716 : en:01:12:25.716
    01:18:34.460 : en:01:18:34.460
    01:28:14.539 : en:01:28:14.539
    01:38:06.714 : en:01:38:06.714
    01:44:02.778 : en:01:44:02.778






    ** Contenuto Nascosto: Schiaccia il bottone RINGRAZIA per visualizzare i link **


    Password: W9uf3209bh0Ped970N
  2. 4 utenti hanno ringraziato PirateMKV per ciò che ha scritto.

    gerico (21.05.2016), mastyff (13.05.2016), Menarello (15.10.2016), rulkks (3 Settimane Fa)

Permessi di Scrittura

  • Tu non puoi inviare nuove discussioni
  • Tu non puoi inviare risposte
  • Tu non puoi inviare allegati
  • Tu non puoi modificare i tuoi messaggi
  •