HomePage - Come attivare il proprio account - Regole del Forum

HOT NEWS!!!

Mission - Impossible 2 (2000) BDRip 720p HEVC ITA ENG AC3 ITA ENG Sub PirateMKV

Rogue one-a Star Wars story (2016)


Rogue One A Star Wars Story il primo capitolo di una nuova avventurosa serie cinematografica che esplora i personaggi e gli eventi che ruotano intorno alla saga di Guerre Stellari.


1080p
720p
UNTOUCHED-1080p
BLURAY FULL
BLURAY FULL 3D
Mission - Impossible 2 (2000) BDRip 720p HEVC ITA ENG AC3 ITA ENG Sub PirateMKV


Avviso a tutti i lettori di mondowarezz.Le sezioni Ebook,Quotidiani e Riviste.Sono momentaneamente chiuse.Vi preghiamo di non intasare la chatbox con le stesse domande.Grazie
Risultati da 1 a 1 di 1
  1. #1
    Status
    Offline
    L'avatar di PirateMKV
    Data Registrazione

    08.04.2015

    Messaggi

    2,781

    Ha ringraziato
    85 volte
    Ha Ricevuto 14,698 ringraziamenti in 2,519 discussioni volte
    Taggato
    1 Post(s)

    Mission - Impossible 2 (2000) BDRip 720p HEVC ITA ENG AC3 ITA ENG Sub PirateMKV






    Titolo: Mission: Impossible II
    Nazione: USA, Germany
    Anno: 2000
    Genere: Action, Adventure, Thriller
    Durata: 123 min
    Regia: John Woo
    Cast: Tom Cruise, Dougray Scott, Thandie Newton, Ving Rhames


    Dopo l'equilibrio spettacolar fantastico di De Palma, che firmava MI1,ecco John Woo principe dell'effimero. Tutto deve essere (iper)spettacolo, anche una semplice passeggiata per le vie di Siviglia deve promettere qualcosa di straordinario che non c': attraverso il rallenty, per fare un esempio. il solito cinema esasperato da tensioni e scene madri, che la fa da padrone nel nostro tempo. La prima parte di MI2 tutta una perdita di tempo. Trucchi e orpelli senza sostanza. Poi il racconto prende a ispirarsi a due fra le pi belle storie del cinema, Notorious e Intrigo internazionale. E naturalmente comincia a funzionare. Si tratta di recuperare un virus terribile e il suo antidoto. Entra in azione Ethan Hunt-Cruise, agente dell'impossibile. Il suo passepartout una ladra internazionale. C' il cattivone e il suo assistente. Alla fine tutto bene. Cruise sempre pi innamorato di se stesso. Risulta davvero incomprensibile la presenza di questa Thandie (bertolucciana), mulatta senza naso.

    Nome Versione: PirateMKV
    Fonte Video: BluRay
    Fonte Audio: BluRay



     






     

    General
    Unique ID : 172002997631423531456966650131498044329 (0x816692869895E2918257F57F5D068BA9)
    Complete name : C:\Users\Administrator\Downloads\MI2\Mission - Impossible 2 (2000) BDRip 720p HEVC ITA ENG AC3 ITA ENG Sub PirateMKV.mkv
    Format : Matroska
    Format version : Version 4 / Version 2
    File size : 3.47 GiB
    Duration : 2h 3mn
    Overall bit rate : 4 023 Kbps
    Movie name : Mission: Impossible 2 (2000) - PirateMKV
    Encoded date : UTC 2016-04-26 15:25:41
    Writing application : mkvmerge v9.1.0 ('Little Earthquakes') 64bit
    Writing library : libebml v1.3.3 libmatroska v1.4.4 / Lavf57.34.103

    Video
    ID : 1
    Format : HEVC
    Format/Info : High Efficiency Video Coding
    Format profile : [email protected]@Main
    Codec ID : V_MPEGH/ISO/HEVC
    Duration : 2h 3mn
    Bit rate : 2 741 Kbps
    Width : 1 280 pixels
    Height : 532 pixels
    Display aspect ratio : 2.40:1
    Frame rate mode : Constant
    Frame rate : 23.976 (24000/1001) fps
    Color space : YUV
    Chroma subsampling : 4:2:0
    Bit depth : 8 bits
    Bits/(Pixel*Frame) : 0.168
    Stream size : 2.37 GiB (68%)
    Writing library : x265 1.9:[Windows][GCC 5.2.0][64 bit] 8bit
    Encoding settings : wpp / ctu=64 / min-cu-size=8 / max-tu-size=32 / tu-intra-depth=3 / tu-inter-depth=3 / me=2 / subme=4 / merange=57 / no-rect / no-amp / max-merge=3 / temporal-mvp / no-early-skip / rdpenalty=0 / no-tskip / no-tskip-fast / strong-intra-smoothing / no-lossless / no-cu-lossless / no-constrained-intra / fast-intra / open-gop / no-temporal-layers / interlace=0 / keyint=250 / min-keyint=23 / scenecut=40 / rc-lookahead=40 / lookahead-slices=0 / bframes=8 / bframe-bias=0 / b-adapt=2 / ref=5 / limit-refs=3 / limit-modes / weightp / weightb / aq-mode=1 / qg-size=32 / aq-strength=2.00 / cbqpoffs=0 / crqpoffs=0 / rd=4 / psy-rd=1.00 / rdoq-level=0 / psy-rdoq=0.00 / signhide / deblock=-1:-1 / sao / no-sao-non-deblock / b-pyramid / no-cutree / no-intra-refresh / rc=crf / crf=22.0 / qcomp=0.60 / qpmin=0 / qpmax=51 / qpstep=4 / vbv-maxrate=12000 / vbv-bufsize=12000 / crf-max=0.0 / ipratio=1.40 / pbratio=1.30
    Language : English
    Default : Yes
    Forced : No
    Color range : Limited
    Matrix coefficients : BT.709

    Audio #1
    ID : 2
    Format : AC-3
    Format/Info : Audio Coding 3
    Mode extension : CM (complete main)
    Format settings, Endianness : Big
    Codec ID : A_AC3
    Duration : 2h 3mn
    Bit rate mode : Constant
    Bit rate : 640 Kbps
    Channel(s) : 6 channels
    Channel positions : Front: L C R, Side: L R, LFE
    Sampling rate : 48.0 KHz
    Frame rate : 31.250 fps (1536 spf)
    Compression mode : Lossy
    Stream size : 566 MiB (16%)
    Title : AC3 5.1
    Language : Italian
    Default : Yes
    Forced : No

    Audio #2
    ID : 3
    Format : AC-3
    Format/Info : Audio Coding 3
    Mode extension : CM (complete main)
    Format settings, Endianness : Big
    Codec ID : A_AC3
    Duration : 2h 3mn
    Bit rate mode : Constant
    Bit rate : 640 Kbps
    Channel(s) : 6 channels
    Channel positions : Front: L C R, Side: L R, LFE
    Sampling rate : 48.0 KHz
    Frame rate : 31.250 fps (1536 spf)
    Compression mode : Lossy
    Stream size : 566 MiB (16%)
    Title : AC3 5.1
    Language : English
    Default : No
    Forced : No

    Text #1
    ID : 4
    Format : UTF-8
    Codec ID : S_TEXT/UTF8
    Codec ID/Info : UTF-8 Plain Text
    Duration : 2h 3mn
    Bit rate : 34 bps
    Count of elements : 963
    Stream size : 31.0 KiB (0%)
    Title : Normal
    Language : Italian
    Default : No
    Forced : No

    Text #2
    ID : 5
    Format : UTF-8
    Codec ID : S_TEXT/UTF8
    Codec ID/Info : UTF-8 Plain Text
    Duration : 1h 57mn
    Bit rate : 36 bps
    Count of elements : 936
    Stream size : 31.4 KiB (0%)
    Title : Normal
    Language : English
    Default : No
    Forced : No

    Menu
    00:00:00.000 : en:00:00:00.000
    00:05:57.023 : en:00:05:57.023
    00:10:39.347 : en:00:10:39.347
    00:18:03.416 : en:00:18:03.416
    00:23:47.343 : en:00:23:47.343
    00:34:47.877 : en:00:34:47.877
    00:45:40.071 : en:00:45:40.071
    00:56:08.407 : en:00:56:08.407
    01:05:07.695 : en:01:05:07.695
    01:11:38.961 : en:01:11:38.961
    01:18:24.742 : en:01:18:24.742
    01:25:59.905 : en:01:25:59.905
    01:35:40.109 : en:01:35:40.109
    01:40:16.802 : en:01:40:16.802
    01:49:33.692 : en:01:49:33.692
    01:53:59.166 : en:01:53:59.166
    01:58:58.590 : en:01:58:58.590






    ** Contenuto Nascosto: Schiaccia il bottone RINGRAZIA per visualizzare i link **


    Password: W9uf3209bh0Ped970N
  2. 5 utenti hanno ringraziato PirateMKV per ci che ha scritto.

    casta458 (25.12.2016), Coby76 (16.01.2017), keijimaeda2013 (27.11.2016), nero44 (18.08.2016), upiopio (27.09.2016)

Permessi di Scrittura

  • Tu non puoi inviare nuove discussioni
  • Tu non puoi inviare risposte
  • Tu non puoi inviare allegati
  • Tu non puoi modificare i tuoi messaggi
  •