HomePage - Come attivare il proprio account - Regole del Forum

HOT NEWS!!!

Mission Impossible - Protocollo Fantasma (2011) BDRip 720p HEVC ITA ENG AC3 ITA ENG Sub PirateMKV

Rogue one-a Star Wars story (2016)


Rogue One A Star Wars Story il primo capitolo di una nuova avventurosa serie cinematografica che esplora i personaggi e gli eventi che ruotano intorno alla saga di Guerre Stellari.


1080p
720p
UNTOUCHED-1080p
BLURAY FULL
BLURAY FULL 3D
Mission Impossible - Protocollo Fantasma (2011) BDRip 720p HEVC ITA ENG AC3 ITA ENG Sub PirateMKV


Avviso a tutti i lettori di mondowarezz.Le sezioni Ebook,Quotidiani e Riviste.Sono momentaneamente chiuse.Vi preghiamo di non intasare la chatbox con le stesse domande.Grazie
Risultati da 1 a 1 di 1
  1. #1
    Status
    Offline
    L'avatar di PirateMKV
    Data Registrazione

    08.04.2015

    Messaggi

    2,781

    Ha ringraziato
    85 volte
    Ha Ricevuto 14,521 ringraziamenti in 2,508 discussioni volte
    Taggato
    1 Post(s)

    Mission Impossible - Protocollo Fantasma (2011) BDRip 720p HEVC ITA ENG AC3 ITA ENG Sub PirateMKV






    Titolo: Mission: Impossible - Ghost Protocol
    Nazione: USA, United Arab Emirates, Czech Republic
    Anno: 2011
    Genere: Action, Adventure, Thriller
    Durata: 133 min
    Regia: Brad Bird
    Cast: Tom Cruise, Paula Patton, Simon Pegg, Jeremy Renner


    Implicati loro malgrado in un gravissimo attentato terroristico al Cremlino l'agente Ethan Hunt e i suoi collaboratori sono messi al bando dal governo americano. Il Presidente lancia l'operazione "Protocollo Fantasma". Hunt e i suoi ufficialmente non agiscono pi per conto degli Usa ma tocca a loro, senza alcuna copertura, cercare di fermare chi sta cercando di scatenare una guerra nucleare contando sulla mai sopita diffidenza tra russi e yankee.

    Nome Versione: PirateMKV
    Fonte Video: BluRay
    Fonte Audio: BluRay



     






     

    General
    Unique ID : 237984725282515079595237608219496102953 (0xB30A30DD0ACED5F187E2E8D222933C29)
    Complete name : C:\Users\Administrator\Downloads\MI4\Mission Impossible - Protocollo Fantasma (2011) BDRip 720p HEVC ITA ENG AC3 ITA ENG Sub PirateMKV.mkv
    Format : Matroska
    Format version : Version 4 / Version 2
    File size : 3.32 GiB
    Duration : 2h 12mn
    Overall bit rate : 3 571 Kbps
    Movie name : Mission Impossible - Protocollo Fantasma (2011) - PirateMKV
    Encoded date : UTC 2016-04-26 15:26:12
    Writing application : mkvmerge v9.1.0 ('Little Earthquakes') 64bit
    Writing library : libebml v1.3.3 libmatroska v1.4.4 / Lavf57.34.103

    Video
    ID : 1
    Format : HEVC
    Format/Info : High Efficiency Video Coding
    Format profile : [email protected]@Main
    Codec ID : V_MPEGH/ISO/HEVC
    Duration : 2h 12mn
    Bit rate : 2 289 Kbps
    Width : 1 280 pixels
    Height : 534 pixels
    Display aspect ratio : 2.40:1
    Original display aspect ratio : 2.40:1
    Frame rate mode : Constant
    Frame rate : 23.976 (24000/1001) fps
    Color space : YUV
    Chroma subsampling : 4:2:0
    Bit depth : 8 bits
    Bits/(Pixel*Frame) : 0.140
    Stream size : 2.13 GiB (64%)
    Writing library : x265 1.9:[Windows][GCC 5.2.0][64 bit] 8bit
    Encoding settings : wpp / ctu=64 / min-cu-size=8 / max-tu-size=32 / tu-intra-depth=3 / tu-inter-depth=3 / me=2 / subme=4 / merange=57 / no-rect / no-amp / max-merge=3 / temporal-mvp / no-early-skip / rdpenalty=0 / no-tskip / no-tskip-fast / strong-intra-smoothing / no-lossless / no-cu-lossless / no-constrained-intra / fast-intra / open-gop / no-temporal-layers / interlace=0 / keyint=250 / min-keyint=23 / scenecut=40 / rc-lookahead=40 / lookahead-slices=0 / bframes=8 / bframe-bias=0 / b-adapt=2 / ref=5 / limit-refs=3 / limit-modes / weightp / weightb / aq-mode=1 / qg-size=32 / aq-strength=2.00 / cbqpoffs=0 / crqpoffs=0 / rd=4 / psy-rd=1.00 / rdoq-level=0 / psy-rdoq=0.00 / signhide / deblock=-1:-1 / sao / no-sao-non-deblock / b-pyramid / no-cutree / no-intra-refresh / rc=crf / crf=21.3 / qcomp=0.60 / qpmin=0 / qpmax=51 / qpstep=4 / vbv-maxrate=12000 / vbv-bufsize=12000 / crf-max=0.0 / ipratio=1.40 / pbratio=1.30
    Language : English
    Default : Yes
    Forced : No
    Color range : Limited
    Matrix coefficients : BT.709

    Audio #1
    ID : 2
    Format : AC-3
    Format/Info : Audio Coding 3
    Mode extension : CM (complete main)
    Format settings, Endianness : Big
    Codec ID : A_AC3
    Duration : 2h 12mn
    Bit rate mode : Constant
    Bit rate : 640 Kbps
    Channel(s) : 6 channels
    Channel positions : Front: L C R, Side: L R, LFE
    Sampling rate : 48.0 KHz
    Frame rate : 31.250 fps (1536 spf)
    Compression mode : Lossy
    Stream size : 609 MiB (18%)
    Title : AC3 5.1
    Language : Italian
    Default : Yes
    Forced : No

    Audio #2
    ID : 3
    Format : AC-3
    Format/Info : Audio Coding 3
    Mode extension : CM (complete main)
    Format settings, Endianness : Big
    Codec ID : A_AC3
    Duration : 2h 12mn
    Bit rate mode : Constant
    Bit rate : 640 Kbps
    Channel(s) : 6 channels
    Channel positions : Front: L C R, Side: L R, LFE
    Sampling rate : 48.0 KHz
    Frame rate : 31.250 fps (1536 spf)
    Compression mode : Lossy
    Stream size : 609 MiB (18%)
    Title : AC3 5.1
    Language : English
    Default : No
    Forced : No

    Text #1
    ID : 4
    Format : UTF-8
    Codec ID : S_TEXT/UTF8
    Codec ID/Info : UTF-8 Plain Text
    Duration : 1h 55mn
    Bit rate : 2 bps
    Count of elements : 93
    Stream size : 2.29 KiB (0%)
    Title : Forced
    Language : Italian
    Default : Yes
    Forced : Yes

    Text #2
    ID : 5
    Format : UTF-8
    Codec ID : S_TEXT/UTF8
    Codec ID/Info : UTF-8 Plain Text
    Duration : 1h 55mn
    Bit rate : 2 bps
    Count of elements : 87
    Stream size : 1.93 KiB (0%)
    Title : Forced
    Language : English
    Default : No
    Forced : No

    Text #3
    ID : 6
    Format : UTF-8
    Codec ID : S_TEXT/UTF8
    Codec ID/Info : UTF-8 Plain Text
    Duration : 2h 9mn
    Bit rate : 40 bps
    Count of elements : 1101
    Stream size : 38.2 KiB (0%)
    Title : Normal
    Language : Italian
    Default : No
    Forced : No

    Text #4
    ID : 7
    Format : UTF-8
    Codec ID : S_TEXT/UTF8
    Codec ID/Info : UTF-8 Plain Text
    Duration : 2h 2mn
    Bit rate : 43 bps
    Count of elements : 1269
    Stream size : 38.9 KiB (0%)
    Title : Normal
    Language : English
    Default : No
    Forced : No

    Menu
    00:00:00.000 : en:00:00:00.000
    00:04:41.907 : en:00:04:41.907
    00:11:28.897 : en:00:11:28.897
    00:20:01.951 : en:00:20:01.951
    00:27:35.320 : en:00:27:35.320
    00:33:28.173 : en:00:33:28.173
    00:38:18.087 : en:00:38:18.087
    00:44:46.100 : en:00:44:46.100
    00:51:37.219 : en:00:51:37.219
    00:56:05.153 : en:00:56:05.153
    01:02:50.183 : en:01:02:50.183
    01:09:17.820 : en:01:09:17.820
    01:16:32.379 : en:01:16:32.379
    01:22:18.517 : en:01:22:18.517
    01:31:17.055 : en:01:31:17.055
    01:35:57.377 : en:01:35:57.377
    01:42:49.914 : en:01:42:49.914
    01:51:01.780 : en:01:51:01.780
    01:58:26.391 : en:01:58:26.391
    02:05:58.843 : en:02:05:58.843






    ** Contenuto Nascosto: Schiaccia il bottone RINGRAZIA per visualizzare i link **


    Password: W9uf3209bh0Ped970N
  2. 3 utenti hanno ringraziato PirateMKV per ci che ha scritto.

    Coby76 (16.01.2017), leo.baldassarra (6 Giorni Fa), upiopio (27.09.2016)

Permessi di Scrittura

  • Tu non puoi inviare nuove discussioni
  • Tu non puoi inviare risposte
  • Tu non puoi inviare allegati
  • Tu non puoi modificare i tuoi messaggi
  •