HomePage - Come attivare il proprio account - Regole del Forum

HOT NEWS!!!

Pino Daniele - Masaniello e' turnato (Protesta, ironia e terra mia...) (2016) .Flac

Transformers - L'Ultimo Cavaliere (2017)


In Transformers - L'Ultimo Cavaliere, quinto episodio dell'epica saga cinematografica firmata Michael Bay e basata sui giocattoli trasformabili Hasbro, la preda diventerà eroe.


1080p
720p
UNTOUCHED-1080p
BLURAY FULL
BLURAY FULL 3D
Pino Daniele - Masaniello e' turnato (Protesta, ironia e terra mia...) (2016) .Flac
Risultati da 1 a 1 di 1
  1. #1
    Status
    Offline
    L'avatar di rapidols
    Data Registrazione

    24.11.2012

    Messaggi

    1,683

    Ha ringraziato
    0 volte
    Ha Ricevuto 13,263 ringraziamenti in 925 discussioni volte
    Taggato
    0 Post(s)

    Pino Daniele - Masaniello e' turnato (Protesta, ironia e terra mia...) (2016) .Flac



    Pino Daniele - Masaniello e' turnato (Protesta, ironia e terra mia...) (2016)
    1 CD | Tracks: 13 |Flac, Tracks+.Log+.Cue | Genre: Blues, Folk
    Size: 461 mb | Front, Back, CD |


    Tracklist:
    01. Je so' pazzo
    02. Al Capone
    03. Napule e'
    04. Se domani piovera'
    05. Nun me scoccia'
    06. 'Na tazzulella 'e cafè
    07. Ce sta chi ce penza
    08. Fatte na pizza
    09. Il mare
    10. Fumo nero
    11. I buoni ed i cattivi
    12. Che soddisfazione
    13. Che te ne fotte

    .Log:
     

    Exact Audio Copy V1.1 from 23. June 2015

    EAC extraction logfile from 13. May 2016, 17:07

    Pino Daniele / Masaniello e' turnato (Protesta, ironia e terra mia...)

    Used drive : ASUS BC-12D2HT Adapter: 0 ID: 0

    Read mode : Secure
    Utilize accurate stream : Yes
    Defeat audio cache : Yes
    Make use of C2 pointers : No

    Read offset correction : 6
    Overread into Lead-In and Lead-Out : No
    Fill up missing offset samples with silence : Yes
    Delete leading and trailing silent blocks : No
    Null samples used in CRC calculations : Yes
    Used interface : Installed external ASPI interface
    Gap handling : Appended to previous track

    Used output format : User Defined Encoder
    Selected bitrate : 1024 kBit/s
    Quality : High
    Add ID3 tag : No
    Command line compressor : C:\Program Files (x86)\Exact Audio Copy\FLAC\FLAC.EXE
    Additional command line options : -8 -V -T "ARTIST=%artist%" -T "TITLE=%title%" -T "ALBUM=%albumtitle%" -T "DATE=%year%" -T "TRACKNUMBER=%tracknr%" -T "GENRE=%genre%" -T "PERFORMER=%albuminterpret%" -T "COMPOSER=%composer%" %haslyrics%--tag-from-file=LYRICS="%lyricsfile%"%haslyrics% -T "ALBUMARTIST=%albumartist%" -T "DISCNUMBER=%cdnumber%" -T "TOTALDISCS=%totalcds%" -T "TOTALTRACKS=%numtracks%" -T "COMMENT= EAC Secure Mode, Test & Copy, AccurateRip, FLAC -8 %comment%" %source% -o %dest%


    TOC of the extracted CD

    Track | Start | Length | Start sector | End sector
    ---------------------------------------------------------
    1 | 0:00.00 | 3:00.00 | 0 | 13499
    2 | 3:00.00 | 3:41.72 | 13500 | 30146
    3 | 6:41.72 | 3:50.00 | 30147 | 47396
    4 | 10:31.72 | 3:58.00 | 47397 | 65246
    5 | 14:29.72 | 3:34.00 | 65247 | 81296
    6 | 18:03.72 | 3:24.00 | 81297 | 96596
    7 | 21:27.72 | 3:27.00 | 96597 | 112121
    8 | 24:54.72 | 3:27.00 | 112122 | 127646
    9 | 28:21.72 | 3:43.00 | 127647 | 144371
    10 | 32:04.72 | 4:06.00 | 144372 | 162821
    11 | 36:10.72 | 5:13.38 | 162822 | 186334
    12 | 41:24.35 | 3:14.38 | 186335 | 200922
    13 | 44:38.73 | 3:25.00 | 200923 | 216297


    Track 1

    Filename C:\EAC\01. Pino Daniele - Je so' pazzo.wav

    Pre-gap length 0:00:02.00

    Peak level 96.6 %
    Extraction speed 1.9 X
    Track quality 100.0 %
    Test CRC 7FA9573F
    Copy CRC 7FA9573F
    Track not present in AccurateRip database
    Copy OK

    Track 2

    Filename C:\EAC\02. Pino Daniele - Al Capone.wav

    Pre-gap length 0:00:01.00

    Peak level 92.4 %
    Extraction speed 2.1 X
    Track quality 100.0 %
    Test CRC F7C09EFF
    Copy CRC F7C09EFF
    Track not present in AccurateRip database
    Copy OK

    Track 3

    Filename C:\EAC\03. Pino Daniele - Napule e'.wav

    Pre-gap length 0:00:01.00

    Peak level 97.8 %
    Extraction speed 2.3 X
    Track quality 100.0 %
    Test CRC 57C89D3D
    Copy CRC 57C89D3D
    Track not present in AccurateRip database
    Copy OK

    Track 4

    Filename C:\EAC\04. Pino Daniele - Se domani piovera'.wav

    Pre-gap length 0:00:01.00

    Peak level 99.8 %
    Extraction speed 2.5 X
    Track quality 100.0 %
    Test CRC E706BE7C
    Copy CRC E706BE7C
    Track not present in AccurateRip database
    Copy OK

    Track 5

    Filename C:\EAC\05. Pino Daniele - Nun me scoccia'.wav

    Pre-gap length 0:00:01.00

    Peak level 97.2 %
    Extraction speed 2.6 X
    Track quality 100.0 %
    Test CRC 7A0EB008
    Copy CRC 7A0EB008
    Track not present in AccurateRip database
    Copy OK

    Track 6

    Filename C:\EAC\06. Pino Daniele - 'Na tazzulella 'e cafè.wav

    Pre-gap length 0:00:01.00

    Peak level 97.0 %
    Extraction speed 2.8 X
    Track quality 100.0 %
    Test CRC E649D76E
    Copy CRC E649D76E
    Track not present in AccurateRip database
    Copy OK

    Track 7

    Filename C:\EAC\07. Pino Daniele - Ce sta chi ce penza.wav

    Pre-gap length 0:00:01.00

    Peak level 97.8 %
    Extraction speed 2.9 X
    Track quality 100.0 %
    Test CRC 03979C5B
    Copy CRC 03979C5B
    Track not present in AccurateRip database
    Copy OK

    Track 8

    Filename C:\EAC\08. Pino Daniele - Fatte na pizza.wav

    Pre-gap length 0:00:01.00

    Peak level 100.0 %
    Extraction speed 3.0 X
    Track quality 100.0 %
    Test CRC 353A7F2B
    Copy CRC 353A7F2B
    Track not present in AccurateRip database
    Copy OK

    Track 9

    Filename C:\EAC\09. Pino Daniele - Il mare.wav

    Pre-gap length 0:00:01.00

    Peak level 84.7 %
    Extraction speed 3.2 X
    Track quality 100.0 %
    Test CRC D01FF1FD
    Copy CRC D01FF1FD
    Track not present in AccurateRip database
    Copy OK

    Track 10

    Filename C:\EAC\10. Pino Daniele - Fumo nero.wav

    Pre-gap length 0:00:01.00

    Peak level 83.6 %
    Extraction speed 2.5 X
    Track quality 99.9 %
    Test CRC E53F52C2
    Copy CRC E53F52C2
    Track not present in AccurateRip database
    Copy OK

    Track 11

    Filename C:\EAC\11. Pino Daniele - I buoni ed i cattivi.wav

    Pre-gap length 0:00:01.00

    Peak level 83.8 %
    Extraction speed 3.6 X
    Track quality 100.0 %
    Test CRC C4BBFCB8
    Copy CRC C4BBFCB8
    Track not present in AccurateRip database
    Copy OK

    Track 12

    Filename C:\EAC\12. Pino Daniele - Che soddisfazione.wav

    Pre-gap length 0:00:01.00

    Peak level 100.0 %
    Extraction speed 2.9 X
    Track quality 99.9 %
    Test CRC D6AE60E8
    Copy CRC D6AE60E8
    Track not present in AccurateRip database
    Copy OK

    Track 13

    Filename C:\EAC\13. Pino Daniele - Che te ne fotte.wav

    Pre-gap length 0:00:01.00

    Peak level 89.0 %
    Extraction speed 3.6 X
    Track quality 100.0 %
    Test CRC CFFF7E0C
    Copy CRC CFFF7E0C
    Track not present in AccurateRip database
    Copy OK


    None of the tracks are present in the AccurateRip database

    No errors occurred

    End of status report

    ---- CUETools DB Plugin V2.1.6

    [CTDB TOCID: nY49.HkJiDc8Ae1MAe6CK8IsqmE-] disk not present in database
    Submit result: nY49.HkJiDc8Ae1MAe6CK8IsqmE- has been uploaded


    ==== Log checksum 2ACDD0BA6FF41A02FC064510AB329B6175D46C607C6ACBFC7D 2D98D97A9CD225 ====



    .Cue:
     

    REM GENRE "Blues, Folk"
    REM DATE 2016
    REM DISCID B30B430D
    REM COMMENT "ExactAudioCopy v1.1"
    PERFORMER "Pino Daniele"
    TITLE "Masaniello e' turnato (Protesta, ironia e terra mia...)"
    FILE "01. Pino Daniele - Je so' pazzo.flac" WAVE
    TRACK 01 AUDIO
    TITLE "Je so' pazzo"
    PERFORMER "Pino Daniele"
    FLAGS DCP
    INDEX 01 00:00:00
    TRACK 02 AUDIO
    TITLE "Al Capone"
    PERFORMER "Pino Daniele"
    ISRC ITR008800101
    FLAGS DCP
    INDEX 00 02:59:00
    FILE "02. Pino Daniele - Al Capone.flac" WAVE
    INDEX 01 00:00:00
    TRACK 03 AUDIO
    TITLE "Napule e'"
    PERFORMER "Pino Daniele"
    FLAGS DCP
    INDEX 00 03:40:72
    FILE "03. Pino Daniele - Napule e'.flac" WAVE
    INDEX 01 00:00:00
    TRACK 04 AUDIO
    TITLE "Se domani piovera'"
    PERFORMER "Pino Daniele"
    ISRC ITR009601871
    FLAGS DCP
    INDEX 00 03:49:00
    FILE "04. Pino Daniele - Se domani piovera'.flac" WAVE
    INDEX 01 00:00:00
    TRACK 05 AUDIO
    TITLE "Nun me scoccia'"
    PERFORMER "Pino Daniele"
    FLAGS DCP
    INDEX 00 03:57:00
    FILE "05. Pino Daniele - Nun me scoccia'.flac" WAVE
    INDEX 01 00:00:00
    TRACK 06 AUDIO
    TITLE "'Na tazzulella 'e cafè"
    PERFORMER "Pino Daniele"
    FLAGS DCP
    INDEX 00 03:33:00
    FILE "06. Pino Daniele - 'Na tazzulella 'e cafè.flac" WAVE
    INDEX 01 00:00:00
    TRACK 07 AUDIO
    TITLE "Ce sta chi ce penza"
    PERFORMER "Pino Daniele"
    FLAGS DCP
    INDEX 00 03:23:00
    FILE "07. Pino Daniele - Ce sta chi ce penza.flac" WAVE
    INDEX 01 00:00:00
    TRACK 08 AUDIO
    TITLE "Fatte na pizza"
    PERFORMER "Pino Daniele"
    ISRC ITR009300811
    FLAGS DCP
    INDEX 00 03:26:00
    FILE "08. Pino Daniele - Fatte na pizza.flac" WAVE
    INDEX 01 00:00:00
    TRACK 09 AUDIO
    TITLE "Il mare"
    PERFORMER "Pino Daniele"
    FLAGS DCP
    INDEX 00 03:26:00
    FILE "09. Pino Daniele - Il mare.flac" WAVE
    INDEX 01 00:00:00
    TRACK 10 AUDIO
    TITLE "Fumo nero"
    PERFORMER "Pino Daniele"
    ISRC ITR009500251
    FLAGS DCP
    INDEX 00 03:42:00
    FILE "10. Pino Daniele - Fumo nero.flac" WAVE
    INDEX 01 00:00:00
    TRACK 11 AUDIO
    TITLE "I buoni ed i cattivi"
    PERFORMER "Pino Daniele"
    ISRC ITR009900111
    FLAGS DCP
    INDEX 00 04:05:00
    FILE "11. Pino Daniele - I buoni ed i cattivi.flac" WAVE
    INDEX 01 00:00:00
    TRACK 12 AUDIO
    TITLE "Che soddisfazione"
    PERFORMER "Pino Daniele"
    ISRC ITR009100281
    FLAGS DCP
    INDEX 00 05:12:38
    FILE "12. Pino Daniele - Che soddisfazione.flac" WAVE
    INDEX 01 00:00:00
    TRACK 13 AUDIO
    TITLE "Che te ne fotte"
    PERFORMER "Pino Daniele"
    ISRC ITR008100021
    FLAGS DCP
    INDEX 00 03:13:38
    FILE "13. Pino Daniele - Che te ne fotte.flac" WAVE
    INDEX 01 00:00:00




    ** Contenuto Nascosto: Schiaccia il bottone RINGRAZIA per visualizzare i link **



    Se ti piacciono i miei post sostienimi abbonandoti o rinnovando un account premium


    http://www.easybytez.com/free295534.html
    http://www.datafile.com/registration.html?id=558300
    http://cloudsix.me/free42348.html
    http://ul.to/ref/6197627
    http://backin.net/free1712.html
    http://www.tusfiles.net/free55431.html
    http://www.ddlstorage.com/referral118887.html
  2. 6 utenti hanno ringraziato rapidols per ciò che ha scritto.

    bulldog35 (08.02.2017), CptIron_SS (08.01.2017), lucioweb (16.10.2016), neo 2015 (07.07.2016), sailaway (19.05.2016), tomba90 (27.09.2016)

Permessi di Scrittura

  • Tu non puoi inviare nuove discussioni
  • Tu non puoi inviare risposte
  • Tu non puoi inviare allegati
  • Tu non puoi modificare i tuoi messaggi
  •