HomePage - Come attivare il proprio account - Regole del Forum

HOT NEWS!!!

Pino Daniele - Play it Loud (Il muro del suono) (2016) .Flac

Transformers - L'Ultimo Cavaliere (2017)


In Transformers - L'Ultimo Cavaliere, quinto episodio dell'epica saga cinematografica firmata Michael Bay e basata sui giocattoli trasformabili Hasbro, la preda diventerŗ eroe.


1080p
720p
UNTOUCHED-1080p
BLURAY FULL
BLURAY FULL 3D
Pino Daniele - Play it Loud (Il muro del suono) (2016) .Flac
Risultati da 1 a 1 di 1
  1. #1
    Status
    Offline
    L'avatar di rapidols
    Data Registrazione

    24.11.2012

    Messaggi

    1,683

    Ha ringraziato
    0 volte
    Ha Ricevuto 13,230 ringraziamenti in 924 discussioni volte
    Taggato
    0 Post(s)

    Pino Daniele - Play it Loud (Il muro del suono) (2016) .Flac



    Pino Daniele - Play it Loud (Il muro del suono) (2016)
    1 CD | Tracks: 13 | Flac, Tracks+.Log+.Cue | Genre: Blues, Folk
    Size: 510 mb | Front, Back, CD |


    Tracklist:
    01. Anema e cÚre
    02. Sesso e chitarra elettrica
    03. Gente di frontiera
    04. Che Dio ti benedica
    05. Boogie boogie man
    06. Yes I know my way
    07. Watch out
    08. Rhum and coca
    09. Stella cometa
    10. Continueremo a navigare
    11. Tutta 'nata storia
    12. Oi Ne'
    13. Solo

    .Log:
     

    Exact Audio Copy V1.1 from 23. June 2015

    EAC extraction logfile from 13. May 2016, 16:12

    Pino Daniele / Play it Loud (Il muro del suono)

    Used drive : ASUS BC-12D2HT Adapter: 0 ID: 0

    Read mode : Secure
    Utilize accurate stream : Yes
    Defeat audio cache : Yes
    Make use of C2 pointers : No

    Read offset correction : 6
    Overread into Lead-In and Lead-Out : No
    Fill up missing offset samples with silence : Yes
    Delete leading and trailing silent blocks : No
    Null samples used in CRC calculations : Yes
    Used interface : Installed external ASPI interface
    Gap handling : Appended to previous track

    Used output format : User Defined Encoder
    Selected bitrate : 1024 kBit/s
    Quality : High
    Add ID3 tag : No
    Command line compressor : C:\Program Files (x86)\Exact Audio Copy\FLAC\FLAC.EXE
    Additional command line options : -8 -V -T "ARTIST=%artist%" -T "TITLE=%title%" -T "ALBUM=%albumtitle%" -T "DATE=%year%" -T "TRACKNUMBER=%tracknr%" -T "GENRE=%genre%" -T "PERFORMER=%albuminterpret%" -T "COMPOSER=%composer%" %haslyrics%--tag-from-file=LYRICS="%lyricsfile%"%haslyrics% -T "ALBUMARTIST=%albumartist%" -T "DISCNUMBER=%cdnumber%" -T "TOTALDISCS=%totalcds%" -T "TOTALTRACKS=%numtracks%" -T "COMMENT= EAC Secure Mode, Test & Copy, AccurateRip, FLAC -8 %comment%" %source% -o %dest%


    TOC of the extracted CD

    Track | Start | Length | Start sector | End sector
    ---------------------------------------------------------
    1 | 0:00.00 | 3:39.00 | 0 | 16424
    2 | 3:39.00 | 3:56.00 | 16425 | 34124
    3 | 7:35.00 | 4:59.00 | 34125 | 56549
    4 | 12:34.00 | 5:16.00 | 56550 | 80249
    5 | 17:50.00 | 3:27.00 | 80250 | 95774
    6 | 21:17.00 | 3:36.00 | 95775 | 111974
    7 | 24:53.00 | 4:56.00 | 111975 | 134174
    8 | 29:49.00 | 4:19.00 | 134175 | 153599
    9 | 34:08.00 | 3:51.00 | 153600 | 170924
    10 | 37:59.00 | 3:52.00 | 170925 | 188324
    11 | 41:51.00 | 4:13.00 | 188325 | 207299
    12 | 46:04.00 | 5:04.00 | 207300 | 230099
    13 | 51:08.00 | 3:59.00 | 230100 | 248024


    Track 1

    Filename C:\EAC\01. Pino Daniele - Anema e cÚre.wav

    Pre-gap length 0:00:02.00

    Peak level 86.1 %
    Extraction speed 2.8 X
    Track quality 100.0 %
    Test CRC AA86FE07
    Copy CRC AA86FE07
    Track not present in AccurateRip database
    Copy OK

    Track 2

    Filename C:\EAC\02. Pino Daniele - Sesso e chitarra elettrica.wav

    Pre-gap length 0:00:01.00

    Peak level 96.8 %
    Extraction speed 3.0 X
    Track quality 100.0 %
    Test CRC 56A813E7
    Copy CRC 56A813E7
    Track not present in AccurateRip database
    Copy OK

    Track 3

    Filename C:\EAC\03. Pino Daniele - Gente di frontiera.wav

    Pre-gap length 0:00:01.00

    Peak level 87.4 %
    Extraction speed 3.5 X
    Track quality 100.0 %
    Test CRC FD1E4AEA
    Copy CRC FD1E4AEA
    Track not present in AccurateRip database
    Copy OK

    Track 4

    Filename C:\EAC\04. Pino Daniele - Che Dio ti benedica.wav

    Pre-gap length 0:00:01.00

    Peak level 89.1 %
    Extraction speed 3.8 X
    Track quality 100.0 %
    Test CRC FA85FA0A
    Copy CRC FA85FA0A
    Track not present in AccurateRip database
    Copy OK

    Track 5

    Filename C:\EAC\05. Pino Daniele - Boogie boogie man.wav

    Pre-gap length 0:00:01.00

    Peak level 89.1 %
    Extraction speed 3.8 X
    Track quality 100.0 %
    Test CRC 28EA2DB1
    Copy CRC 28EA2DB1
    Track not present in AccurateRip database
    Copy OK

    Track 6

    Filename C:\EAC\06. Pino Daniele - Yes I know my way.wav

    Pre-gap length 0:00:01.00

    Peak level 89.1 %
    Extraction speed 4.0 X
    Track quality 100.0 %
    Test CRC 7D83F059
    Copy CRC 7D83F059
    Track not present in AccurateRip database
    Copy OK

    Track 7

    Filename C:\EAC\07. Pino Daniele - Watch out.wav

    Pre-gap length 0:00:01.00

    Peak level 98.8 %
    Extraction speed 4.4 X
    Track quality 100.0 %
    Test CRC E4F5E0F9
    Copy CRC E4F5E0F9
    Track not present in AccurateRip database
    Copy OK

    Track 8

    Filename C:\EAC\08. Pino Daniele - Rhum and coca.wav

    Pre-gap length 0:00:01.00

    Peak level 89.0 %
    Extraction speed 4.6 X
    Track quality 100.0 %
    Test CRC 7332BAF5
    Copy CRC 7332BAF5
    Track not present in AccurateRip database
    Copy OK

    Track 9

    Filename C:\EAC\09. Pino Daniele - Stella cometa.wav

    Pre-gap length 0:00:01.00

    Peak level 89.1 %
    Extraction speed 4.6 X
    Track quality 100.0 %
    Test CRC E690607F
    Copy CRC E690607F
    Track not present in AccurateRip database
    Copy OK

    Track 10

    Filename C:\EAC\10. Pino Daniele - Continueremo a navigare.wav

    Pre-gap length 0:00:01.00

    Peak level 87.0 %
    Extraction speed 4.9 X
    Track quality 100.0 %
    Test CRC A92414C8
    Copy CRC A92414C8
    Track not present in AccurateRip database
    Copy OK

    Track 11

    Filename C:\EAC\11. Pino Daniele - Tutta 'nata storia.wav

    Pre-gap length 0:00:01.00

    Peak level 88.2 %
    Extraction speed 4.9 X
    Track quality 100.0 %
    Test CRC CE14AD64
    Copy CRC CE14AD64
    Track not present in AccurateRip database
    Copy OK

    Track 12

    Filename C:\EAC\12. Pino Daniele - Oi Ne'.wav

    Pre-gap length 0:00:01.00

    Peak level 88.1 %
    Extraction speed 5.3 X
    Track quality 100.0 %
    Test CRC 418A9ACB
    Copy CRC 418A9ACB
    Track not present in AccurateRip database
    Copy OK

    Track 13

    Filename C:\EAC\13. Pino Daniele - Solo.wav

    Pre-gap length 0:00:01.00

    Peak level 93.4 %
    Extraction speed 5.3 X
    Track quality 100.0 %
    Test CRC C6834B6F
    Copy CRC C6834B6F
    Track not present in AccurateRip database
    Copy OK


    None of the tracks are present in the AccurateRip database

    No errors occurred

    End of status report

    ---- CUETools DB Plugin V2.1.6

    [CTDB TOCID: XV7fBtzMXUhLDMk0A77TXJpeEwU-] disk not present in database
    Submit result: XV7fBtzMXUhLDMk0A77TXJpeEwU- has been uploaded


    ==== Log checksum E2F4E8F7BEDE2E5497C2F180D7DEBDEC6567B92D7A1EA3FE7D EFD2ABE23E1B29 ====



    .Cue:
     

    REM GENRE "Blues, Folk"
    REM DATE 2016
    REM DISCID A90CEB0D
    REM COMMENT "ExactAudioCopy v1.1"
    PERFORMER "Pino Daniele"
    TITLE "Play it Loud (Il muro del suono)"
    FILE "01. Pino Daniele - Anema e cÚre.flac" WAVE
    TRACK 01 AUDIO
    TITLE "Anema e cÚre"
    PERFORMER "Pino Daniele"
    FLAGS DCP
    INDEX 01 00:00:00
    TRACK 02 AUDIO
    TITLE "Sesso e chitarra elettrica"
    PERFORMER "Pino Daniele"
    FLAGS DCP
    INDEX 00 03:38:00
    FILE "02. Pino Daniele - Sesso e chitarra elettrica.flac" WAVE
    INDEX 01 00:00:00
    TRACK 03 AUDIO
    TITLE "Gente di frontiera"
    PERFORMER "Pino Daniele"
    FLAGS DCP
    INDEX 00 03:55:00
    FILE "03. Pino Daniele - Gente di frontiera.flac" WAVE
    INDEX 01 00:00:00
    TRACK 04 AUDIO
    TITLE "Che Dio ti benedica"
    PERFORMER "Pino Daniele"
    FLAGS DCP
    INDEX 00 04:58:00
    FILE "04. Pino Daniele - Che Dio ti benedica.flac" WAVE
    INDEX 01 00:00:00
    TRACK 05 AUDIO
    TITLE "Boogie boogie man"
    PERFORMER "Pino Daniele"
    FLAGS DCP
    INDEX 00 05:15:00
    FILE "05. Pino Daniele - Boogie boogie man.flac" WAVE
    INDEX 01 00:00:00
    TRACK 06 AUDIO
    TITLE "Yes I know my way"
    PERFORMER "Pino Daniele"
    ISRC ITR008100011
    FLAGS DCP
    INDEX 00 03:26:00
    FILE "06. Pino Daniele - Yes I know my way.flac" WAVE
    INDEX 01 00:00:00
    TRACK 07 AUDIO
    TITLE "Watch out"
    PERFORMER "Pino Daniele"
    ISRC ITR008700111
    FLAGS DCP
    INDEX 00 03:35:00
    FILE "07. Pino Daniele - Watch out.flac" WAVE
    INDEX 01 00:00:00
    TRACK 08 AUDIO
    TITLE "Rhum and coca"
    PERFORMER "Pino Daniele"
    FLAGS DCP
    INDEX 00 04:55:00
    FILE "08. Pino Daniele - Rhum and coca.flac" WAVE
    INDEX 01 00:00:00
    TRACK 09 AUDIO
    TITLE "Stella cometa"
    PERFORMER "Pino Daniele"
    ISRC ITR009900141
    FLAGS DCP
    INDEX 00 04:18:00
    FILE "09. Pino Daniele - Stella cometa.flac" WAVE
    INDEX 01 00:00:00
    TRACK 10 AUDIO
    TITLE "Continueremo a navigare"
    PERFORMER "Pino Daniele"
    ISRC ITR009601781
    FLAGS DCP
    INDEX 00 03:50:00
    FILE "10. Pino Daniele - Continueremo a navigare.flac" WAVE
    INDEX 01 00:00:00
    TRACK 11 AUDIO
    TITLE "Tutta 'nata storia"
    PERFORMER "Pino Daniele"
    ISRC ITR008200381
    FLAGS DCP
    INDEX 00 03:51:00
    FILE "11. Pino Daniele - Tutta 'nata storia.flac" WAVE
    INDEX 01 00:00:00
    TRACK 12 AUDIO
    TITLE "Oi Ne'"
    PERFORMER "Pino Daniele"
    ISRC ITR008400281
    FLAGS DCP
    INDEX 00 04:12:00
    FILE "12. Pino Daniele - Oi Ne'.flac" WAVE
    INDEX 01 00:00:00
    TRACK 13 AUDIO
    TITLE "Solo"
    PERFORMER "Pino Daniele"
    ISRC ITR009100445
    FLAGS DCP
    INDEX 00 05:03:00
    FILE "13. Pino Daniele - Solo.flac" WAVE
    INDEX 01 00:00:00




    ** Contenuto Nascosto: Schiaccia il bottone RINGRAZIA per visualizzare i link **



    Se ti piacciono i miei post sostienimi abbonandoti o rinnovando un account premium


    http://www.easybytez.com/free295534.html
    http://www.datafile.com/registration.html?id=558300
    http://cloudsix.me/free42348.html
    http://ul.to/ref/6197627
    http://backin.net/free1712.html
    http://www.tusfiles.net/free55431.html
    http://www.ddlstorage.com/referral118887.html
  2. 7 utenti hanno ringraziato rapidols per ciÚ che ha scritto.

    bulldog35 (08.02.2017), lucioweb (16.10.2016), maxia (21.05.2016), neo 2015 (07.07.2016), sailaway (19.05.2016), software (20.05.2016), ziosub (15.05.2016)

Permessi di Scrittura

  • Tu non puoi inviare nuove discussioni
  • Tu non puoi inviare risposte
  • Tu non puoi inviare allegati
  • Tu non puoi modificare i tuoi messaggi
  •