HomePage - Come attivare il proprio account - Regole del Forum

HOT NEWS!!!

Pinocchio (1940) BDRip 720p HEVC ITA ENG AC3 ITA ENG Sub PirateMKV

Doctor Strange (2016)


Il neurochirurgo Stephen Strange vede la sua vita cambiare per sempre dopo che un terribile incidente automobilistico lo priva dell’uso delle mani. Quando la medicina tradizionale si dimostra incapace di guarirlo, Strange è costretto cercare una cura in un luogo inaspettato: una misteriosa enclave nota come Kamar-Taj.


1080p
720p
UNTOUCHED-1080p
BLURAY FULL
BLURAY FULL 3D
Pinocchio (1940) BDRip 720p HEVC ITA ENG AC3 ITA ENG Sub PirateMKV
Risultati da 1 a 1 di 1
  1. #1
    Status
    Offline
    L'avatar di PirateMKV
    Data Registrazione

    08.04.2015

    Messaggi

    2,663

    Ha ringraziato
    80 volte
    Ha Ricevuto 12,020 ringraziamenti in 2,345 discussioni volte
    Taggato
    0 Post(s)

    Pinocchio (1940) BDRip 720p HEVC ITA ENG AC3 ITA ENG Sub PirateMKV






    Titolo: Pinocchio
    Nazione: USA
    Anno: 1940
    Genere: Animation, Family, Fantasy
    Durata: 88 min
    Regia: Norman Ferguson, T. Hee, Wilfred Jackson, Jack Kinney, Hamilton Luske, Bill Roberts, Ben Sharpsteen
    Cast: Mel Blanc, Don Brodie, Walter Catlett, Marion Darlington


    Walt Disney ha preso alcuni elementi dalla nota fiaba del Collodi, trasformandoli. Geppetto è divenuto un intagliatore di legno e fabbricante di giocattoli; Pinocchio è un pupazzetto vestito alla tirolese. Il grillo parlante è trasformato, non si sa bene perché, in un nanerottolo in cilindro e giubba, che ripete continuamente di essere la coscienza di Pinocchio, perché tutti, Pinocchio compreso, ne siano persuasi. La Fatina Azzurra è una graziosa fanciulla, che non ha nulla di fiabesco. La trama segue, negli episodi essenziali, il racconto di Collodi, ma dell'atmosfera poetica, dell'atmosfera morale create dal genio dello scrittore toscano, qui non c'è traccia. C'è invece una serie d'invenzioni tecniche, di fantasie cromatiche e musicali, degne d'interesse, ed anche, in certi punti, d'ammirazione.

    Nome Versione: PirateMKV
    Fonte Video: BluRay
    Fonte Audio: BluRay



     






     

    General
    Unique ID : 248383186440859611617300498068235916643 (0xBADCDC94C23721A49FE1DD59E7C89563)
    Complete name : C:\Users\Administrator\Downloads\PINOCCHIO\Pinocch io (1940) BDRip 720p HEVC ITA ENG AC3 ITA ENG Sub PirateMKV.mkv
    Format : Matroska
    Format version : Version 4 / Version 2
    File size : 2.12 GiB
    Duration : 1h 27mn
    Overall bit rate : 3 460 Kbps
    Movie name : Pinocchio (1940) - PirateMKV
    Encoded date : UTC 2016-05-16 11:16:53
    Writing application : mkvmerge v9.1.0 ('Little Earthquakes') 64bit
    Writing library : libebml v1.3.3 libmatroska v1.4.4 / Lavf57.36.100

    Video
    ID : 1
    Format : HEVC
    Format/Info : High Efficiency Video Coding
    Format profile : Main@L4@Main
    Codec ID : V_MPEGH/ISO/HEVC
    Duration : 1h 27mn
    Bit rate : 2 178 Kbps
    Width : 968 pixels
    Height : 720 pixels
    Display aspect ratio : 4:3
    Frame rate mode : Constant
    Frame rate : 23.976 (24000/1001) fps
    Color space : YUV
    Chroma subsampling : 4:2:0
    Bit depth : 8 bits
    Bits/(Pixel*Frame) : 0.130
    Stream size : 1.33 GiB (63%)
    Writing library : x265 1.9:[Windows][GCC 5.2.0][64 bit] 8bit
    Encoding settings : wpp / ctu=64 / min-cu-size=8 / max-tu-size=32 / tu-intra-depth=3 / tu-inter-depth=3 / me=2 / subme=4 / merange=57 / no-rect / no-amp / max-merge=3 / temporal-mvp / no-early-skip / rdpenalty=0 / no-tskip / no-tskip-fast / strong-intra-smoothing / no-lossless / no-cu-lossless / no-constrained-intra / fast-intra / open-gop / no-temporal-layers / interlace=0 / keyint=250 / min-keyint=23 / scenecut=40 / rc-lookahead=40 / lookahead-slices=0 / bframes=8 / bframe-bias=0 / b-adapt=2 / ref=5 / limit-refs=3 / limit-modes / weightp / weightb / aq-mode=1 / qg-size=32 / aq-strength=2.00 / cbqpoffs=0 / crqpoffs=0 / rd=4 / psy-rd=1.00 / rdoq-level=0 / psy-rdoq=0.00 / signhide / deblock=-1:-1 / sao / no-sao-non-deblock / b-pyramid / no-cutree / no-intra-refresh / rc=crf / crf=21.5 / qcomp=0.60 / qpmin=0 / qpmax=51 / qpstep=4 / vbv-maxrate=12000 / vbv-bufsize=12000 / crf-max=0.0 / ipratio=1.40 / pbratio=1.30
    Language : English
    Default : Yes
    Forced : No
    Color range : Limited
    Matrix coefficients : BT.709

    Audio #1
    ID : 2
    Format : AC-3
    Format/Info : Audio Coding 3
    Mode extension : CM (complete main)
    Format settings, Endianness : Big
    Codec ID : A_AC3
    Duration : 1h 27mn
    Bit rate mode : Constant
    Bit rate : 640 Kbps
    Channel(s) : 6 channels
    Channel positions : Front: L C R, Side: L R, LFE
    Sampling rate : 48.0 KHz
    Frame rate : 31.250 fps (1536 spf)
    Compression mode : Lossy
    Stream size : 402 MiB (18%)
    Title : AC3 5.1
    Language : Italian
    Default : Yes
    Forced : No

    Audio #2
    ID : 3
    Format : AC-3
    Format/Info : Audio Coding 3
    Mode extension : CM (complete main)
    Format settings, Endianness : Big
    Codec ID : A_AC3
    Duration : 1h 27mn
    Bit rate mode : Constant
    Bit rate : 640 Kbps
    Channel(s) : 6 channels
    Channel positions : Front: L C R, Side: L R, LFE
    Sampling rate : 48.0 KHz
    Frame rate : 31.250 fps (1536 spf)
    Compression mode : Lossy
    Stream size : 402 MiB (18%)
    Title : AC3 5.1
    Language : English
    Default : No
    Forced : No

    Text #1
    ID : 4
    Format : UTF-8
    Codec ID : S_TEXT/UTF8
    Codec ID/Info : UTF-8 Plain Text
    Duration : 58mn 23s
    Bit rate : 0 bps
    Count of elements : 5
    Stream size : 171 Bytes (0%)
    Title : Forced
    Language : Italian
    Default : Yes
    Forced : Yes

    Text #2
    ID : 5
    Format : UTF-8
    Codec ID : S_TEXT/UTF8
    Codec ID/Info : UTF-8 Plain Text
    Duration : 1h 27mn
    Bit rate : 46 bps
    Count of elements : 999
    Stream size : 29.5 KiB (0%)
    Title : Normal
    Language : Italian
    Default : No
    Forced : No

    Text #3
    ID : 6
    Format : UTF-8
    Codec ID : S_TEXT/UTF8
    Codec ID/Info : UTF-8 Plain Text
    Duration : 1h 27mn
    Bit rate : 48 bps
    Count of elements : 1002
    Stream size : 30.9 KiB (0%)
    Title : Normal
    Language : English
    Default : No
    Forced : No

    Text #4
    ID : 7
    Format : UTF-8
    Codec ID : S_TEXT/UTF8
    Codec ID/Info : UTF-8 Plain Text
    Duration : 1h 27mn
    Bit rate : 55 bps
    Count of elements : 1211
    Stream size : 35.6 KiB (0%)
    Title : SDH
    Language : English
    Default : No
    Forced : No

    Menu
    00:00:00.000 : en:00:00:00.000
    00:02:21.516 : en:00:02:21.516
    00:06:16.585 : en:00:06:16.585
    00:11:33.484 : en:00:11:33.484
    00:15:17.083 : en:00:15:17.083
    00:18:43.706 : en:00:18:43.706
    00:21:33.751 : en:00:21:33.751
    00:26:58.367 : en:00:26:58.367
    00:28:48.101 : en:00:28:48.101
    00:30:45.469 : en:00:30:45.469
    00:36:32.440 : en:00:36:32.440
    00:40:56.329 : en:00:40:56.329
    00:47:43.277 : en:00:47:43.277
    00:50:32.655 : en:00:50:32.655
    00:53:06.809 : en:00:53:06.809
    00:57:06.256 : en:00:57:06.256
    00:58:47.899 : en:00:58:47.899
    01:04:06.885 : en:01:04:06.885
    01:06:31.988 : en:01:06:31.988
    01:09:08.895 : en:01:09:08.895
    01:14:52.238 : en:01:14:52.238
    01:17:01.283 : en:01:17:01.283
    01:20:08.470 : en:01:20:08.470
    01:24:29.648 : en:01:24:29.648






    ** Contenuto Nascosto: Schiaccia il bottone RINGRAZIA per visualizzare i link **


    Password: W9uf3209bh0Ped970N
  2. 3 utenti hanno ringraziato PirateMKV per ciò che ha scritto.

    ataru1802 (28.09.2016), nemo (3 Giorni Fa), VinX360 (1 Settimana Fa)

Permessi di Scrittura

  • Tu non puoi inviare nuove discussioni
  • Tu non puoi inviare risposte
  • Tu non puoi inviare allegati
  • Tu non puoi modificare i tuoi messaggi
  •