HomePage - Come attivare il proprio account - Regole del Forum

HOT NEWS!!!

Pioggia di ricordi (1991) BDRip 720p HEVC ITA JAP AC3 ITA Sub PirateMKV

Oceania (2016)


Una vivace adolescente di nome Vaiana s’imbarca in una coraggiosa missione per salvare il suo popolo. Durante il suo viaggio, s’imbatterà nel semidio in disgrazia Maui che la guiderà nella sua ricerca per diventare una grande esploratrice.


1080p
720p
UNTOUCHED-1080p
BLURAY FULL
BLURAY FULL 3D
Pioggia di ricordi (1991) BDRip 720p HEVC ITA JAP AC3 ITA Sub PirateMKV


Avviso a tutti i lettori di mondowarezz.Le sezioni Ebook,Quotidiani e Riviste.Sono momentaneamente chiuse.Vi preghiamo di non intasare la chatbox con le stesse domande.Grazie
Risultati da 1 a 1 di 1
  1. #1
    Status
    Offline
    L'avatar di PirateMKV
    Data Registrazione

    08.04.2015

    Messaggi

    2,781

    Ha ringraziato
    85 volte
    Ha Ricevuto 15,064 ringraziamenti in 2,532 discussioni volte
    Taggato
    1 Post(s)

    Pioggia di ricordi (1991) BDRip 720p HEVC ITA JAP AC3 ITA Sub PirateMKV






    Titolo: Only Yesterday
    Nazione: Japan
    Anno: 1991
    Genere: Animation, Drama, Romance
    Durata: 118 min
    Regia: Isao Takahata
    Cast: Miki Imai, Toshirô Yanagiba, Youko Honna, Ava Acres


    Conosciuto con il titolo internazionale Only Yesterday, Omohide poro poro è un lungometraggio prodotto dallo Studio Ghiblie diretto da Isao Takahata, basato sull'omonimo manga di Hotaru Okamoto e Yuko Tone.

    Nome Versione: PirateMKV
    Fonte Video: BluRay
    Fonte Audio: BluRay



     






     

    General
    Unique ID : 254677662669641472737545606893122836109 (0xBF99223835D762039AC3CFD9627B568D)
    Complete name : C:\Users\Administrator\Downloads\********************nime\Pioggia .Di.Ricordi.1991\Pioggia di ricordi (1991) BDRip 720p HEVC ITA JAP AC3 ITA Sub PirateMKV.mkv
    Format : Matroska
    Format version : Version 4 / Version 2
    File size : 3.18 GiB
    Duration : 1h 58mn
    Overall bit rate : 3 838 Kbps
    Movie name : Pioggia di ricordi (1991) - PirateMKV
    Encoded date : UTC 2016-05-10 17:34:15
    Writing application : mkvmerge v9.1.0 ('Little Earthquakes') 64bit
    Writing library : libebml v1.3.3 libmatroska v1.4.4 / Lavf57.36.100

    Video
    ID : 1
    Format : HEVC
    Format/Info : High Efficiency Video Coding
    Format profile : [email protected]@Main
    Codec ID : V_MPEGH/ISO/HEVC
    Duration : 1h 58mn
    Bit rate : 2 940 Kbps
    Width : 1 280 pixels
    Height : 692 pixels
    Display aspect ratio : 1.85:1
    Frame rate mode : Constant
    Frame rate : 24.000 fps
    Color space : YUV
    Chroma subsampling : 4:2:0
    Bit depth : 8 bits
    Bits/(Pixel*Frame) : 0.138
    Stream size : 2.44 GiB (77%)
    Writing library : x265 1.9:[Windows][GCC 5.2.0][64 bit] 8bit
    Encoding settings : wpp / ctu=64 / min-cu-size=8 / max-tu-size=32 / tu-intra-depth=3 / tu-inter-depth=3 / me=2 / subme=4 / merange=57 / no-rect / no-amp / max-merge=3 / temporal-mvp / no-early-skip / rdpenalty=0 / no-tskip / no-tskip-fast / strong-intra-smoothing / no-lossless / no-cu-lossless / no-constrained-intra / fast-intra / open-gop / no-temporal-layers / interlace=0 / keyint=250 / min-keyint=24 / scenecut=40 / rc-lookahead=40 / lookahead-slices=0 / bframes=8 / bframe-bias=0 / b-adapt=2 / ref=5 / limit-refs=3 / limit-modes / weightp / weightb / aq-mode=1 / qg-size=32 / aq-strength=2.00 / cbqpoffs=0 / crqpoffs=0 / rd=4 / psy-rd=1.00 / rdoq-level=0 / psy-rdoq=0.00 / signhide / deblock=-1:-1 / sao / no-sao-non-deblock / b-pyramid / no-cutree / no-intra-refresh / rc=crf / crf=21.1 / qcomp=0.60 / qpmin=0 / qpmax=51 / qpstep=4 / vbv-maxrate=12000 / vbv-bufsize=12000 / crf-max=0.0 / ipratio=1.40 / pbratio=1.30
    Language : English
    Default : Yes
    Forced : No
    Color range : Limited
    Matrix coefficients : BT.709

    Audio #1
    ID : 2
    Format : AC-3
    Format/Info : Audio Coding 3
    Mode extension : CM (complete main)
    Format settings, Endianness : Big
    Codec ID : A_AC3
    Duration : 1h 58mn
    Bit rate mode : Constant
    Bit rate : 448 Kbps
    Channel(s) : 2 channels
    Channel positions : Front: L R
    Sampling rate : 48.0 KHz
    Frame rate : 31.250 fps (1536 spf)
    Compression mode : Lossy
    Stream size : 380 MiB (12%)
    Title : AC3 2.0
    Language : Italian
    Default : Yes
    Forced : No

    Audio #2
    ID : 3
    Format : AC-3
    Format/Info : Audio Coding 3
    Mode extension : CM (complete main)
    Format settings, Endianness : Big
    Codec ID : A_AC3
    Duration : 1h 58mn
    Bit rate mode : Constant
    Bit rate : 448 Kbps
    Channel(s) : 2 channels
    Channel positions : Front: L R
    Sampling rate : 48.0 KHz
    Frame rate : 31.250 fps (1536 spf)
    Compression mode : Lossy
    Stream size : 380 MiB (12%)
    Title : AC3 2.0
    Language : Japanese
    Default : No
    Forced : No

    Text
    ID : 4
    Format : UTF-8
    Codec ID : S_TEXT/UTF8
    Codec ID/Info : UTF-8 Plain Text
    Duration : 1h 57mn
    Bit rate : 10 bps
    Count of elements : 153
    Stream size : 8.67 KiB (0%)
    Title : Normal
    Language : Italian
    Default : No
    Forced : No






    ** Contenuto Nascosto: Schiaccia il bottone RINGRAZIA per visualizzare i link **


    Password: W9uf3209bh0Ped970N
  2. 3 utenti hanno ringraziato PirateMKV per ciò che ha scritto.

    Archilettrice (29.07.2016), Modigliani (19.06.2016), negadon (06.06.2016)

Permessi di Scrittura

  • Tu non puoi inviare nuove discussioni
  • Tu non puoi inviare risposte
  • Tu non puoi inviare allegati
  • Tu non puoi modificare i tuoi messaggi
  •