HomePage - Come attivare il proprio account - Regole del Forum

HOT NEWS!!!

Pirati dei Caraibi - Ai confini del Mondo (2007) BDRip 720p HEVC ITA ENG AC3 ITA ENG Sub PirateMKV

Rogue one-a Star Wars story (2016)


Rogue One A Star Wars Story il primo capitolo di una nuova avventurosa serie cinematografica che esplora i personaggi e gli eventi che ruotano intorno alla saga di Guerre Stellari.


1080p
720p
UNTOUCHED-1080p
BLURAY FULL
BLURAY FULL 3D
Pirati dei Caraibi - Ai confini del Mondo (2007) BDRip 720p HEVC ITA ENG AC3 ITA ENG Sub PirateMKV


Avviso a tutti i lettori di mondowarezz.Le sezioni Ebook,Quotidiani e Riviste.Sono momentaneamente chiuse.Vi preghiamo di non intasare la chatbox con le stesse domande.Grazie
Risultati da 1 a 1 di 1
  1. #1
    Status
    Offline
    L'avatar di PirateMKV
    Data Registrazione

    08.04.2015

    Messaggi

    2,781

    Ha ringraziato
    85 volte
    Ha Ricevuto 14,338 ringraziamenti in 2,505 discussioni volte
    Taggato
    1 Post(s)

    Pirati dei Caraibi - Ai confini del Mondo (2007) BDRip 720p HEVC ITA ENG AC3 ITA ENG Sub PirateMKV






    Titolo: Pirates of the Caribbean: At World's End
    Nazione: USA
    Anno: 2007
    Genere: Action, Adventure, Family
    Durata: 169 min
    Regia: Gore Verbinski
    Cast: Johnny Depp, Geoffrey Rush, Orlando Bloom, Keira Knightley


    Sono tempi cupi per i Pirati: la loro epoca si avvia ormai al tramonto. Lord Cutler Beckett (Tom Hollander), della Compagnia delle Indie Orientali, riuscito ad ottenere il controllo del terribile veliero fantasma l'Olandese Volante e del malvagio e vendicativo Capitano Davy Jones (Bill Nighy). L'Olandese Volante semina il terrore nei Sette Mari al comando dell'Ammiraglio Norrington (Jack Davenport) e, mettendo in mostra una potenza inarrestabile, distrugge senza piet le navi pirata.
    Will Turner (Orlando Bloom), Elizabeth Swann (Keira Knightley) e Capitan Barbossa (Geoffrey Rush) s'imbarcano nel disperato tentativo di unirsi ai Nove Pirati Lord della Fratellanza, la loro unica speranza di sconfiggere Beckett, l'Olandese Volante e l'intera flotta. Ma uno dei Pirati Lord scomparso. Si tratta del Capitano Jack Sparrow (Johnny Depp), il migliore e nello stesso tempo il peggiore tra i pirati, intrappolato nello scrigno di Davy Jones dopo il suo incontro con il mostruoso Kraken.

    Nome Versione: PirateMKV
    Fonte Video: BluRay
    Fonte Audio: BluRay



     






     

    General
    Unique ID : 171306588011962006026907226290300535925 (0x80E072E16E57E128846BDDA74E2A4475)
    Complete name : C:\Users\Administrator\Downloads\pirati\Pirati dei Caraibi - Ai confini del Mondo (2007) BDRip 720p HEVC ITA ENG AC3 ITA ENG Sub PirateMKV.mkv
    Format : Matroska
    Format version : Version 4 / Version 2
    File size : 4.70 GiB
    Duration : 2h 48mn
    Overall bit rate : 3 997 Kbps
    Movie name : Pirati dei Caraibi - Ai confini del Mondo (2007) - PirateMKV
    Encoded date : UTC 2016-05-05 20:07:02
    Writing application : mkvmerge v9.1.0 ('Little Earthquakes') 64bit
    Writing library : libebml v1.3.3 libmatroska v1.4.4 / Lavf57.34.103

    Video
    ID : 1
    Format : HEVC
    Format/Info : High Efficiency Video Coding
    Format profile : [email protected]@Main
    Codec ID : V_MPEGH/ISO/HEVC
    Duration : 2h 48mn
    Bit rate : 2 715 Kbps
    Width : 1 280 pixels
    Height : 534 pixels
    Display aspect ratio : 2.40:1
    Original display aspect ratio : 2.40:1
    Frame rate mode : Constant
    Frame rate : 23.976 (24000/1001) fps
    Color space : YUV
    Chroma subsampling : 4:2:0
    Bit depth : 8 bits
    Bits/(Pixel*Frame) : 0.166
    Stream size : 3.20 GiB (68%)
    Writing library : x265 1.9:[Windows][GCC 5.2.0][64 bit] 8bit
    Encoding settings : wpp / ctu=64 / min-cu-size=8 / max-tu-size=32 / tu-intra-depth=3 / tu-inter-depth=3 / me=2 / subme=4 / merange=57 / no-rect / no-amp / max-merge=3 / temporal-mvp / no-early-skip / rdpenalty=0 / no-tskip / no-tskip-fast / strong-intra-smoothing / no-lossless / no-cu-lossless / no-constrained-intra / fast-intra / open-gop / no-temporal-layers / interlace=0 / keyint=250 / min-keyint=23 / scenecut=40 / rc-lookahead=40 / lookahead-slices=0 / bframes=8 / bframe-bias=0 / b-adapt=2 / ref=5 / limit-refs=1 / limit-modes / weightp / weightb / aq-mode=1 / qg-size=32 / aq-strength=2.00 / cbqpoffs=0 / crqpoffs=0 / rd=4 / psy-rd=1.00 / rdoq-level=0 / psy-rdoq=0.00 / signhide / deblock=-1:-1 / sao / no-sao-non-deblock / b-pyramid / no-cutree / no-intra-refresh / rc=crf / crf=21.5 / qcomp=0.60 / qpmin=0 / qpmax=51 / qpstep=4 / vbv-maxrate=12000 / vbv-bufsize=12000 / crf-max=0.0 / ipratio=1.40 / pbratio=1.30
    Default : Yes
    Forced : No
    Color range : Limited
    Matrix coefficients : BT.709

    Audio #1
    ID : 2
    Format : AC-3
    Format/Info : Audio Coding 3
    Mode extension : CM (complete main)
    Format settings, Endianness : Big
    Codec ID : A_AC3
    Duration : 2h 48mn
    Bit rate mode : Constant
    Bit rate : 640 Kbps
    Channel(s) : 6 channels
    Channel positions : Front: L C R, Side: L R, LFE
    Sampling rate : 48.0 KHz
    Frame rate : 31.250 fps (1536 spf)
    Compression mode : Lossy
    Stream size : 771 MiB (16%)
    Title : AC3 5.1
    Language : Italian
    Default : Yes
    Forced : No

    Audio #2
    ID : 3
    Format : AC-3
    Format/Info : Audio Coding 3
    Mode extension : CM (complete main)
    Format settings, Endianness : Big
    Codec ID : A_AC3
    Duration : 2h 48mn
    Bit rate mode : Constant
    Bit rate : 640 Kbps
    Channel(s) : 6 channels
    Channel positions : Front: L C R, Side: L R, LFE
    Sampling rate : 48.0 KHz
    Frame rate : 31.250 fps (1536 spf)
    Compression mode : Lossy
    Stream size : 771 MiB (16%)
    Title : AC3 5.1
    Language : English
    Default : No
    Forced : No

    Text #1
    ID : 4
    Format : UTF-8
    Codec ID : S_TEXT/UTF8
    Codec ID/Info : UTF-8 Plain Text
    Duration : 2h 46mn
    Bit rate : 0 bps
    Count of elements : 7
    Stream size : 171 Bytes (0%)
    Title : Forced
    Language : Italian
    Default : Yes
    Forced : Yes

    Text #2
    ID : 5
    Format : UTF-8
    Codec ID : S_TEXT/UTF8
    Codec ID/Info : UTF-8 Plain Text
    Duration : 2h 46mn
    Bit rate : 38 bps
    Count of elements : 1504
    Stream size : 46.6 KiB (0%)
    Title : Normal
    Language : Italian
    Default : No
    Forced : No

    Text #3
    ID : 6
    Format : UTF-8
    Codec ID : S_TEXT/UTF8
    Codec ID/Info : UTF-8 Plain Text
    Duration : 2h 46mn
    Bit rate : 39 bps
    Count of elements : 1516
    Stream size : 48.5 KiB (0%)
    Title : Normal
    Language : English
    Default : No
    Forced : No

    Text #4
    ID : 7
    Format : UTF-8
    Codec ID : S_TEXT/UTF8
    Codec ID/Info : UTF-8 Plain Text
    Duration : 2h 46mn
    Bit rate : 42 bps
    Count of elements : 1650
    Stream size : 51.7 KiB (0%)
    Title : SDH
    Language : English
    Default : No
    Forced : No

    Menu
    00:00:00.000 : en:00:00:00.000
    00:04:33.940 : en:00:04:33.940
    00:10:01.810 : en:00:10:01.810
    00:19:58.280 : en:00:19:58.280
    00:26:07.483 : en:00:26:07.483
    00:32:47.340 : en:00:32:47.340
    00:39:40.336 : en:00:39:40.336
    00:46:04.762 : en:00:46:04.762
    00:51:31.964 : en:00:51:31.964
    00:58:03.730 : en:00:58:03.730
    01:04:50.678 : en:01:04:50.678
    01:12:46.821 : en:01:12:46.821
    01:17:54.878 : en:01:17:54.878
    01:24:46.540 : en:01:24:46.540
    01:28:41.358 : en:01:28:41.358
    01:33:34.150 : en:01:33:34.150
    01:38:05.671 : en:01:38:05.671
    01:41:52.982 : en:01:41:52.982
    01:48:12.653 : en:01:48:12.653
    01:53:13.286 : en:01:53:13.286
    01:59:31.372 : en:01:59:31.372
    02:05:52.211 : en:02:05:52.211
    02:09:13.245 : en:02:09:13.245
    02:13:53.525 : en:02:13:53.525
    02:23:19.257 : en:02:23:19.257
    02:28:15.636 : en:02:28:15.636
    02:34:29.218 : en:02:34:29.218
    02:38:48.560 : en:02:38:48.560






    ** Contenuto Nascosto: Schiaccia il bottone RINGRAZIA per visualizzare i link **


    Password: W9uf3209bh0Ped970N
  2. 10 utenti hanno ringraziato PirateMKV per ci che ha scritto.

    brotha (12.08.2016), calypso1976 (2 Settimane Fa), casta458 (25.12.2016), Coby76 (15.01.2017), danzaneo (11.10.2016), maxvill (02.06.2016), nemo (4 Settimane Fa), nero44 (19.08.2016), OIZIRBAF02 (01.08.2016), stickx (01.02.2017)

Permessi di Scrittura

  • Tu non puoi inviare nuove discussioni
  • Tu non puoi inviare risposte
  • Tu non puoi inviare allegati
  • Tu non puoi modificare i tuoi messaggi
  •