HomePage - Come attivare il proprio account - Regole del Forum

HOT NEWS!!!

Pirati dei Caraibi - La maledizione del forziere fantasma (2006) BDRip 1080p HEVC ITA ENG AC3 ITA ENG Sub PirateMKV

Passengers (2016)


Durante un viaggio verso una nuova casa su un altro pianeta, due passeggeri vengono svegliati 90 anni prima del previsto per un guasto della nave spaziale.


1080p
720p
UNTOUCHED-1080p
BLURAY FULL
BLURAY FULL 3D
Pirati dei Caraibi - La maledizione del forziere fantasma (2006) BDRip 1080p HEVC ITA ENG AC3 ITA ENG Sub PirateMKV


Avviso a tutti i lettori di mondowarezz.Le sezioni Ebook,Quotidiani e Riviste.Sono momentaneamente chiuse.Vi preghiamo di non intasare la chatbox con le stesse domande.Grazie
Risultati da 1 a 1 di 1
  1. #1
    Status
    Offline
    L'avatar di PirateMKV
    Data Registrazione

    08.04.2015

    Messaggi

    2,781

    Ha ringraziato
    85 volte
    Ha Ricevuto 14,282 ringraziamenti in 2,503 discussioni volte
    Taggato
    1 Post(s)

    Pirati dei Caraibi - La maledizione del forziere fantasma (2006) BDRip 1080p HEVC ITA ENG AC3 ITA ENG Sub PirateMKV






    Titolo: Pirates of the Caribbean: Dead Man's Chest
    Nazione: USA
    Anno: 2006
    Genere: Action, Adventure, Family
    Durata: 151 min
    Regia: Gore Verbinski
    Cast: Johnny Depp, Orlando Bloom, Keira Knightley, Jack Davenport


    Avevamo lasciato la giovane aristocratica Elizabeth Swann e il suo devoto compagno Will Turner a un passo dalle nozze e il pirata Jack Sparrow a un passo dalla libert, sulla terra ma non troppo lontani dal mare. Esattamente l li ritroviamo nel secondo capitolo della saga piratesca. Se la fuga rocambolesca di Jack ha un esito favorevole, meno fortuna avranno gli sposi promessi: arrestati, separati e rigettati nel mare dei Caraibi, ancora una volta a fianco di Sparrow e a caccia di un cuore. Quello perduto e innamorato del leggendario Davy Jones, padrone redivivo degli oceani e comandante dell'Olandese Volante, un vascello fantasma che fa incetta di navi e trascina negli abissi dell'oceano le anime delle ciurme. Sparrow gli ha venduto la sua per riscattare la Perla Nera, la nave a lungo cercata, e solo il cuore trafitto di Jones scioglierebbe il patto faustiano. Molti altri bramano il forziere in cui il cuore conservato e non sempre per ragioni nobili. Si naviga a vista...

    Nome Versione: PirateMKV
    Fonte Video: BluRay
    Fonte Audio: BluRay



     






     

    General
    Unique ID : 180655300685952560940234325579358090357 (0x87E8F2008375A3DA84674561989D3475)
    Complete name : C:\Users\Administrator\Downloads\pirati\Pirati dei Caraibi - La maledizione del forziere fantasma (2006) BDRip 1080p HEVC ITA ENG AC3 ITA ENG Sub PirateMKV.mkv
    Format : Matroska
    Format version : Version 4 / Version 2
    File size : 7.10 GiB
    Duration : 2h 30mn
    Overall bit rate : 6 747 Kbps
    Movie name : Pirati dei Caraibi - La maledizione del forziere fantasma (2006) - PirateMKV
    Encoded date : UTC 2016-05-05 20:05:32
    Writing application : mkvmerge v9.1.0 ('Little Earthquakes') 64bit
    Writing library : libebml v1.3.3 libmatroska v1.4.4 / Lavf57.34.103

    Video
    ID : 1
    Format : HEVC
    Format/Info : High Efficiency Video Coding
    Format profile : [email protected]@Main
    Codec ID : V_MPEGH/ISO/HEVC
    Duration : 2h 30mn
    Bit rate : 5 465 Kbps
    Width : 1 920 pixels
    Height : 804 pixels
    Display aspect ratio : 2.40:1
    Frame rate mode : Constant
    Frame rate : 23.976 (24000/1001) fps
    Color space : YUV
    Chroma subsampling : 4:2:0
    Bit depth : 8 bits
    Bits/(Pixel*Frame) : 0.148
    Stream size : 5.75 GiB (81%)
    Writing library : x265 1.9:[Windows][GCC 5.2.0][64 bit] 8bit
    Encoding settings : wpp / ctu=64 / min-cu-size=8 / max-tu-size=32 / tu-intra-depth=3 / tu-inter-depth=3 / me=2 / subme=4 / merange=57 / no-rect / no-amp / max-merge=3 / temporal-mvp / no-early-skip / rdpenalty=0 / no-tskip / no-tskip-fast / strong-intra-smoothing / no-lossless / no-cu-lossless / no-constrained-intra / fast-intra / open-gop / no-temporal-layers / interlace=0 / keyint=250 / min-keyint=23 / scenecut=40 / rc-lookahead=40 / lookahead-slices=0 / bframes=8 / bframe-bias=0 / b-adapt=2 / ref=5 / limit-refs=3 / limit-modes / weightp / weightb / aq-mode=1 / qg-size=32 / aq-strength=2.00 / cbqpoffs=0 / crqpoffs=0 / rd=4 / psy-rd=1.00 / rdoq-level=0 / psy-rdoq=0.00 / signhide / deblock=-1:-1 / sao / no-sao-non-deblock / b-pyramid / no-cutree / no-intra-refresh / rc=crf / crf=22.5 / qcomp=0.60 / qpmin=0 / qpmax=51 / qpstep=4 / vbv-maxrate=12000 / vbv-bufsize=12000 / crf-max=0.0 / ipratio=1.40 / pbratio=1.30
    Default : Yes
    Forced : No
    Color range : Limited
    Matrix coefficients : BT.709

    Audio #1
    ID : 2
    Format : AC-3
    Format/Info : Audio Coding 3
    Mode extension : CM (complete main)
    Format settings, Endianness : Big
    Codec ID : A_AC3
    Duration : 2h 30mn
    Bit rate mode : Constant
    Bit rate : 640 Kbps
    Channel(s) : 6 channels
    Channel positions : Front: L C R, Side: L R, LFE
    Sampling rate : 48.0 KHz
    Frame rate : 31.250 fps (1536 spf)
    Compression mode : Lossy
    Stream size : 690 MiB (9%)
    Title : AC3 5.1
    Language : Italian
    Default : Yes
    Forced : No

    Audio #2
    ID : 3
    Format : AC-3
    Format/Info : Audio Coding 3
    Mode extension : CM (complete main)
    Format settings, Endianness : Big
    Codec ID : A_AC3
    Duration : 2h 30mn
    Bit rate mode : Constant
    Bit rate : 640 Kbps
    Channel(s) : 6 channels
    Channel positions : Front: L C R, Side: L R, LFE
    Sampling rate : 48.0 KHz
    Frame rate : 31.250 fps (1536 spf)
    Compression mode : Lossy
    Stream size : 690 MiB (9%)
    Title : AC3 5.1
    Language : English
    Default : No
    Forced : No

    Text #1
    ID : 4
    Format : UTF-8
    Codec ID : S_TEXT/UTF8
    Codec ID/Info : UTF-8 Plain Text
    Duration : 9s 467ms
    Bit rate : 46 bps
    Count of elements : 2
    Stream size : 55.0 Bytes (0%)
    Title : Forced
    Language : Italian
    Default : Yes
    Forced : Yes

    Text #2
    ID : 5
    Format : UTF-8
    Codec ID : S_TEXT/UTF8
    Codec ID/Info : UTF-8 Plain Text
    Duration : 2h 20mn
    Bit rate : 38 bps
    Count of elements : 1214
    Stream size : 39.6 KiB (0%)
    Title : Normal
    Language : Italian
    Default : No
    Forced : No

    Text #3
    ID : 6
    Format : UTF-8
    Codec ID : S_TEXT/UTF8
    Codec ID/Info : UTF-8 Plain Text
    Duration : 2h 18mn
    Bit rate : 40 bps
    Count of elements : 1290
    Stream size : 41.1 KiB (0%)
    Title : Normal
    Language : English
    Default : No
    Forced : No

    Text #4
    ID : 7
    Format : UTF-8
    Codec ID : S_TEXT/UTF8
    Codec ID/Info : UTF-8 Plain Text
    Duration : 2h 29mn
    Bit rate : 41 bps
    Count of elements : 1485
    Stream size : 45.5 KiB (0%)
    Title : SDH
    Language : English
    Default : No
    Forced : No

    Menu
    00:00:00.000 : en:00:00:00.000
    00:04:18.925 : en:00:04:18.925
    00:09:53.009 : en:00:09:53.009
    00:12:13.441 : en:00:12:13.441
    00:19:09.065 : en:00:19:09.065
    00:23:53.474 : en:00:23:53.474
    00:30:15.480 : en:00:30:15.480
    00:35:29.419 : en:00:35:29.419
    00:40:32.930 : en:00:40:32.930
    00:46:28.035 : en:00:46:28.035
    00:50:25.564 : en:00:50:25.564
    00:56:18.625 : en:00:56:18.625
    00:59:52.380 : en:00:59:52.380
    01:05:45.191 : en:01:05:45.191
    01:11:55.853 : en:01:11:55.853
    01:17:04.328 : en:01:17:04.328
    01:22:10.259 : en:01:22:10.259
    01:30:36.639 : en:01:30:36.639
    01:34:38.172 : en:01:34:38.172
    01:39:21.831 : en:01:39:21.831
    01:44:52.411 : en:01:44:52.411
    01:49:14.715 : en:01:49:14.715
    01:54:55.805 : en:01:54:55.805
    01:59:36.044 : en:01:59:36.044
    02:04:59.909 : en:02:04:59.909
    02:10:27.194 : en:02:10:27.194
    02:16:20.631 : en:02:16:20.631
    02:21:04.789 : en:02:21:04.789






    ** Contenuto Nascosto: Schiaccia il bottone RINGRAZIA per visualizzare i link **


    Password: W9uf3209bh0Ped970N
  2. 14 utenti hanno ringraziato PirateMKV per ci che ha scritto.

    4K. (09.02.2017), alexmaverick (16.05.2016), fedeyo (14.08.2016), gerico (16.05.2016), HypnotizeTore (05.09.2016), maxdilix (30.05.2016), Menarello (16.10.2016), peppinograsso (28.12.2016), ragatak (06.06.2016), rocky1 (2 Settimane Fa), sbirisbiri (08.01.2017), stigno (2 Settimane Fa), torofurioso (30.06.2016), webmagut (21.10.2016)

Permessi di Scrittura

  • Tu non puoi inviare nuove discussioni
  • Tu non puoi inviare risposte
  • Tu non puoi inviare allegati
  • Tu non puoi modificare i tuoi messaggi
  •