HomePage - Come attivare il proprio account - Regole del Forum

HOT NEWS!!!

Pirati dei Caraibi - La Maledizione della Prima Luna (2003) BDRip 720p HEVC ITA ENG AC3 ITA ENG Sub PirateMKV

Rogue one-a Star Wars story (2016)


Rogue One A Star Wars Story il primo capitolo di una nuova avventurosa serie cinematografica che esplora i personaggi e gli eventi che ruotano intorno alla saga di Guerre Stellari.


1080p
720p
UNTOUCHED-1080p
BLURAY FULL
BLURAY FULL 3D
Pirati dei Caraibi - La Maledizione della Prima Luna (2003) BDRip 720p HEVC ITA ENG AC3 ITA ENG Sub PirateMKV


Avviso a tutti i lettori di mondowarezz.Le sezioni Ebook,Quotidiani e Riviste.Sono momentaneamente chiuse.Vi preghiamo di non intasare la chatbox con le stesse domande.Grazie
Risultati da 1 a 1 di 1
  1. #1
    Status
    Offline
    L'avatar di PirateMKV
    Data Registrazione

    08.04.2015

    Messaggi

    2,781

    Ha ringraziato
    85 volte
    Ha Ricevuto 14,581 ringraziamenti in 2,511 discussioni volte
    Taggato
    1 Post(s)

    Pirati dei Caraibi - La Maledizione della Prima Luna (2003) BDRip 720p HEVC ITA ENG AC3 ITA ENG Sub PirateMKV






    Titolo: Pirates of the Caribbean: The Curse of the Black Pearl
    Nazione: USA
    Anno: 2003
    Genere: Action, Adventure, Fantasy
    Durata: 143 min
    Regia: Gore Verbinski
    Cast: Johnny Depp, Geoffrey Rush, Orlando Bloom, Keira Knightley


    Caraibi, 1700. La figlia del governatore viene rapita dal malvagio pirata Barbossa (Rush). Will Turner (Orlando Bloom), amico d'infanzia della ragazza e segretamente innamorato di lei, si unisce a Jack Sparrow (Depp), un pirata vagabondo e per cui la parola strano suona eufemistica, per portare in salvo la fanciulla. Ma per riuscirci, dovranno affrontare misteriose e sinistre forze del male che risalgono addirittura a una maledizione azteca...

    Nome Versione: PirateMKV
    Fonte Video: BluRay
    Fonte Audio: BluRay



     






     

    General
    Unique ID : 239136679895095848828826283870675006273 (0xB3E80C9C60A2AE9D90795FFDE3A7F341)
    Complete name : C:\Users\Administrator\Downloads\pirati\Pirati dei Caraibi - La Maledizione della Prima Luna (2003) BDRip 720p HEVC ITA ENG AC3 ITA ENG Sub PirateMKV.mkv
    Format : Matroska
    Format version : Version 4 / Version 2
    File size : 4.55 GiB
    Duration : 2h 23mn
    Overall bit rate : 4 554 Kbps
    Movie name : La maledizione della prima luna (2003) - PirateMKV
    Encoded date : UTC 2016-05-05 20:00:35
    Writing application : mkvmerge v9.1.0 ('Little Earthquakes') 64bit
    Writing library : libebml v1.3.3 libmatroska v1.4.4 / Lavf57.34.103

    Video
    ID : 1
    Format : HEVC
    Format/Info : High Efficiency Video Coding
    Format profile : [email protected]@Main
    Codec ID : V_MPEGH/ISO/HEVC
    Duration : 2h 23mn
    Bit rate : 3 272 Kbps
    Width : 1 280 pixels
    Height : 534 pixels
    Display aspect ratio : 2.40:1
    Original display aspect ratio : 2.40:1
    Frame rate mode : Constant
    Frame rate : 23.976 (24000/1001) fps
    Color space : YUV
    Chroma subsampling : 4:2:0
    Bit depth : 8 bits
    Bits/(Pixel*Frame) : 0.200
    Stream size : 3.27 GiB (72%)
    Writing library : x265 1.9:[Windows][GCC 5.2.0][64 bit] 8bit
    Encoding settings : wpp / ctu=64 / min-cu-size=8 / max-tu-size=32 / tu-intra-depth=3 / tu-inter-depth=3 / me=2 / subme=4 / merange=57 / no-rect / no-amp / max-merge=3 / temporal-mvp / no-early-skip / rdpenalty=0 / no-tskip / no-tskip-fast / strong-intra-smoothing / no-lossless / no-cu-lossless / no-constrained-intra / fast-intra / open-gop / no-temporal-layers / interlace=0 / keyint=250 / min-keyint=23 / scenecut=40 / rc-lookahead=40 / lookahead-slices=0 / bframes=8 / bframe-bias=0 / b-adapt=2 / ref=5 / limit-refs=3 / limit-modes / weightp / weightb / aq-mode=1 / qg-size=32 / aq-strength=2.00 / cbqpoffs=0 / crqpoffs=0 / rd=4 / psy-rd=1.00 / rdoq-level=0 / psy-rdoq=0.00 / signhide / deblock=-1:-1 / sao / no-sao-non-deblock / b-pyramid / no-cutree / no-intra-refresh / rc=crf / crf=21.5 / qcomp=0.60 / qpmin=0 / qpmax=51 / qpstep=4 / vbv-maxrate=12000 / vbv-bufsize=12000 / crf-max=0.0 / ipratio=1.40 / pbratio=1.30
    Default : Yes
    Forced : No
    Color range : Limited
    Matrix coefficients : BT.709

    Audio #1
    ID : 2
    Format : AC-3
    Format/Info : Audio Coding 3
    Mode extension : CM (complete main)
    Format settings, Endianness : Big
    Codec ID : A_AC3
    Duration : 2h 23mn
    Bit rate mode : Constant
    Bit rate : 640 Kbps
    Channel(s) : 6 channels
    Channel positions : Front: L C R, Side: L R, LFE
    Sampling rate : 48.0 KHz
    Frame rate : 31.250 fps (1536 spf)
    Compression mode : Lossy
    Stream size : 655 MiB (14%)
    Title : AC3 5.1
    Language : Italian
    Default : Yes
    Forced : No

    Audio #2
    ID : 3
    Format : AC-3
    Format/Info : Audio Coding 3
    Mode extension : CM (complete main)
    Format settings, Endianness : Big
    Codec ID : A_AC3
    Duration : 2h 23mn
    Bit rate mode : Constant
    Bit rate : 640 Kbps
    Channel(s) : 6 channels
    Channel positions : Front: L C R, Side: L R, LFE
    Sampling rate : 48.0 KHz
    Frame rate : 31.250 fps (1536 spf)
    Compression mode : Lossy
    Stream size : 655 MiB (14%)
    Title : AC3 5.1
    Language : English
    Default : No
    Forced : No

    Text #1
    ID : 4
    Format : UTF-8
    Codec ID : S_TEXT/UTF8
    Codec ID/Info : UTF-8 Plain Text
    Duration : 9mn 29s
    Bit rate : 0 bps
    Count of elements : 2
    Stream size : 67.0 Bytes (0%)
    Title : Forced
    Language : Italian
    Default : Yes
    Forced : Yes

    Text #2
    ID : 5
    Format : UTF-8
    Codec ID : S_TEXT/UTF8
    Codec ID/Info : UTF-8 Plain Text
    Duration : 2h 23mn
    Bit rate : 41 bps
    Count of elements : 1582
    Stream size : 43.8 KiB (0%)
    Title : Normal
    Language : Italian
    Default : No
    Forced : No

    Text #3
    ID : 6
    Format : UTF-8
    Codec ID : S_TEXT/UTF8
    Codec ID/Info : UTF-8 Plain Text
    Duration : 2h 22mn
    Bit rate : 44 bps
    Count of elements : 1621
    Stream size : 46.6 KiB (0%)
    Title : Normal
    Language : English
    Default : No
    Forced : No

    Text #4
    ID : 7
    Format : UTF-8
    Codec ID : S_TEXT/UTF8
    Codec ID/Info : UTF-8 Plain Text
    Duration : 2h 22mn
    Bit rate : 49 bps
    Count of elements : 1923
    Stream size : 52.0 KiB (0%)
    Title : SDH
    Language : English
    Default : No
    Forced : No

    Menu
    00:00:00.000 : en:00:00:00.000
    00:08:51.281 : en:00:08:51.281
    00:16:05.548 : en:00:16:05.548
    00:27:16.343 : en:00:27:16.343
    00:35:59.324 : en:00:35:59.324
    00:41:02.960 : en:00:41:02.960
    00:48:19.939 : en:00:48:19.939
    00:54:01.280 : en:00:54:01.280
    01:04:05.675 : en:01:04:05.675
    01:15:56.802 : en:01:15:56.802
    01:21:21.418 : en:01:21:21.418
    01:35:00.153 : en:01:35:00.153
    01:40:00.745 : en:01:40:00.745
    01:48:15.614 : en:01:48:15.614
    02:02:02.190 : en:02:02:02.190
    02:13:09.648 : en:02:13:09.648






    ** Contenuto Nascosto: Schiaccia il bottone RINGRAZIA per visualizzare i link **


    Password: W9uf3209bh0Ped970N
  2. 13 utenti hanno ringraziato PirateMKV per ci che ha scritto.

    brotha (12.08.2016), calypso1976 (2 Settimane Fa), casta458 (25.12.2016), ciaociao1967 (13.11.2016), Coby76 (15.01.2017), danzaneo (11.10.2016), l.ila (20.01.2017), maxvill (24.05.2016), nemo (17.02.2017), nero44 (19.08.2016), OIZIRBAF02 (01.08.2016), stickx (01.02.2017), zandor (3 Settimane Fa)

Permessi di Scrittura

  • Tu non puoi inviare nuove discussioni
  • Tu non puoi inviare risposte
  • Tu non puoi inviare allegati
  • Tu non puoi modificare i tuoi messaggi
  •