HomePage - Come attivare il proprio account - Regole del Forum

HOT NEWS!!!

Pirati dei Caraibi - Oltre i confini del mare (2011) BDRip 1080p HEVC ITA ENG AC3 ITA ENG Sub PirateMKV

Rogue one-a Star Wars story (2016)


Rogue One A Star Wars Story Ŕ il primo capitolo di una nuova avventurosa serie cinematografica che esplora i personaggi e gli eventi che ruotano intorno alla saga di Guerre Stellari.


1080p
720p
UNTOUCHED-1080p
BLURAY FULL
BLURAY FULL 3D
Pirati dei Caraibi - Oltre i confini del mare (2011) BDRip 1080p HEVC ITA ENG AC3 ITA ENG Sub PirateMKV


Avviso a tutti i lettori di mondowarezz.Le sezioni Ebook,Quotidiani e Riviste.Sono momentaneamente chiuse.Vi preghiamo di non intasare la chatbox con le stesse domande.Grazie
Risultati da 1 a 1 di 1
  1. #1
    Status
    Offline
    L'avatar di PirateMKV
    Data Registrazione

    08.04.2015

    Messaggi

    2,781

    Ha ringraziato
    85 volte
    Ha Ricevuto 14,398 ringraziamenti in 2,507 discussioni volte
    Taggato
    1 Post(s)

    Pirati dei Caraibi - Oltre i confini del mare (2011) BDRip 1080p HEVC ITA ENG AC3 ITA ENG Sub PirateMKV






    Titolo: Pirates of the Caribbean: On Stranger Tides
    Nazione: USA, UK
    Anno: 2011
    Genere: Action, Adventure, Fantasy
    Durata: 136 min
    Regia: Rob Marshall
    Cast: Johnny Depp, PenÚlope Cruz, Geoffrey Rush, Ian McShane


    Dopo essere sfuggito alle guardie del re nel tentativo di liberare il vecchio compagno di mare Gibbs, Jack Sparrow si ritrova prigioniero sulla nave di Barbanera, grazie alla bella e inaffidabile figlia di quest'ultimo, Angelica, in passato sedotta e abbandonata da Jack stesso e ora a capo della ciurma di zombie del padre. Suo malgrado, il nostro fa dunque rotta verso la Fontana della giovinezza, facendo presto squadra con Barbossa, che si finge al servizio della corona d'Inghilterra ma in veritÓ cerca la vendetta su Barbanera, responsabile della gamba di legno che lo invalida. Per poter ottenere dalla fonte il suo beneficio, a pirati, soldati e corsari occorrono per˛ alcuni ingredienti di non facile reperimento: due antichi calici e una lacrima di sirena.

    Nome Versione: PirateMKV
    Fonte Video: BluRay
    Fonte Audio: BluRay



     






     

    General
    Unique ID : 209122901949999244774533740569080538577 (0x9D539B1BC16B1EF49B62EB5B161AA5D1)
    Complete name : C:\Users\Administrator\Downloads\pirati\Pirati dei Caraibi - Oltre i confini del mare (2011) BDRip 1080p HEVC ITA ENG AC3 ITA ENG Sub PirateMKV.mkv
    Format : Matroska
    Format version : Version 4 / Version 2
    File size : 5.08 GiB
    Duration : 2h 16mn
    Overall bit rate : 5 331 Kbps
    Movie name : Pirati dei Caraibi - Oltre i confini del mare (2011) - PirateMKV
    Encoded date : UTC 2016-05-05 20:11:06
    Writing application : mkvmerge v9.1.0 ('Little Earthquakes') 64bit
    Writing library : libebml v1.3.3 libmatroska v1.4.4 / Lavf57.34.103

    Video
    ID : 1
    Format : HEVC
    Format/Info : High Efficiency Video Coding
    Format profile : [email protected]@Main
    Codec ID : V_MPEGH/ISO/HEVC
    Duration : 2h 16mn
    Bit rate : 4 049 Kbps
    Width : 1 920 pixels
    Height : 800 pixels
    Display aspect ratio : 2.40:1
    Frame rate mode : Constant
    Frame rate : 23.976 (24000/1001) fps
    Color space : YUV
    Chroma subsampling : 4:2:0
    Bit depth : 8 bits
    Bits/(Pixel*Frame) : 0.110
    Stream size : 3.86 GiB (76%)
    Writing library : x265 1.9:[Windows][GCC 5.2.0][64 bit] 8bit
    Encoding settings : wpp / ctu=64 / min-cu-size=8 / max-tu-size=32 / tu-intra-depth=3 / tu-inter-depth=3 / me=2 / subme=4 / merange=57 / no-rect / no-amp / max-merge=3 / temporal-mvp / no-early-skip / rdpenalty=0 / no-tskip / no-tskip-fast / strong-intra-smoothing / no-lossless / no-cu-lossless / no-constrained-intra / fast-intra / open-gop / no-temporal-layers / interlace=0 / keyint=250 / min-keyint=23 / scenecut=40 / rc-lookahead=40 / lookahead-slices=0 / bframes=8 / bframe-bias=0 / b-adapt=2 / ref=5 / limit-refs=1 / limit-modes / weightp / weightb / aq-mode=1 / qg-size=32 / aq-strength=2.00 / cbqpoffs=0 / crqpoffs=0 / rd=4 / psy-rd=1.00 / rdoq-level=0 / psy-rdoq=0.00 / signhide / deblock=-1:-1 / sao / no-sao-non-deblock / b-pyramid / no-cutree / no-intra-refresh / rc=crf / crf=22.5 / qcomp=0.60 / qpmin=0 / qpmax=51 / qpstep=4 / vbv-maxrate=12000 / vbv-bufsize=12000 / crf-max=0.0 / ipratio=1.40 / pbratio=1.30
    Default : Yes
    Forced : No
    Color range : Limited
    Matrix coefficients : BT.709

    Audio #1
    ID : 2
    Format : AC-3
    Format/Info : Audio Coding 3
    Mode extension : CM (complete main)
    Format settings, Endianness : Big
    Codec ID : A_AC3
    Duration : 2h 16mn
    Bit rate mode : Constant
    Bit rate : 640 Kbps
    Channel(s) : 6 channels
    Channel positions : Front: L C R, Side: L R, LFE
    Sampling rate : 48.0 KHz
    Frame rate : 31.250 fps (1536 spf)
    Compression mode : Lossy
    Stream size : 624 MiB (12%)
    Title : AC3 5.1
    Language : Italian
    Default : Yes
    Forced : No

    Audio #2
    ID : 3
    Format : AC-3
    Format/Info : Audio Coding 3
    Mode extension : CM (complete main)
    Format settings, Endianness : Big
    Codec ID : A_AC3
    Duration : 2h 16mn
    Bit rate mode : Constant
    Bit rate : 640 Kbps
    Channel(s) : 6 channels
    Channel positions : Front: L C R, Side: L R, LFE
    Sampling rate : 48.0 KHz
    Frame rate : 31.250 fps (1536 spf)
    Compression mode : Lossy
    Stream size : 624 MiB (12%)
    Title : AC3 5.1
    Language : English
    Default : No
    Forced : No

    Text #1
    ID : 4
    Format : UTF-8
    Codec ID : S_TEXT/UTF8
    Codec ID/Info : UTF-8 Plain Text
    Duration : 2h 6mn
    Bit rate : 0 bps
    Count of elements : 5
    Stream size : 140 Bytes (0%)
    Title : Forced
    Language : Italian
    Default : Yes
    Forced : Yes

    Text #2
    ID : 5
    Format : UTF-8
    Codec ID : S_TEXT/UTF8
    Codec ID/Info : UTF-8 Plain Text
    Duration : 2h 6mn
    Bit rate : 43 bps
    Count of elements : 1270
    Stream size : 40.7 KiB (0%)
    Title : Normal
    Language : Italian
    Default : No
    Forced : No

    Text #3
    ID : 6
    Format : UTF-8
    Codec ID : S_TEXT/UTF8
    Codec ID/Info : UTF-8 Plain Text
    Duration : 2h 5mn
    Bit rate : 47 bps
    Count of elements : 1331
    Stream size : 43.5 KiB (0%)
    Title : Normal
    Language : English
    Default : No
    Forced : No

    Text #4
    ID : 7
    Format : UTF-8
    Codec ID : S_TEXT/UTF8
    Codec ID/Info : UTF-8 Plain Text
    Duration : 2h 16mn
    Bit rate : 50 bps
    Count of elements : 1534
    Stream size : 50.5 KiB (0%)
    Title : SDH
    Language : English
    Default : No
    Forced : No

    Menu
    00:00:00.000 : en:00:00:00.000
    00:03:34.172 : en:00:03:34.172
    00:08:46.776 : en:00:08:46.776
    00:15:56.080 : en:00:15:56.080
    00:18:34.155 : en:00:18:34.155
    00:21:15.316 : en:00:21:15.316
    00:30:05.512 : en:00:30:05.512
    00:36:56.756 : en:00:36:56.756
    00:42:05.356 : en:00:42:05.356
    00:48:20.022 : en:00:48:20.022
    00:53:26.078 : en:00:53:26.078
    00:55:42.965 : en:00:55:42.965
    00:57:52.844 : en:00:57:52.844
    01:00:47.477 : en:01:00:47.477
    01:08:22.223 : en:01:08:22.223
    01:11:41.339 : en:01:11:41.339
    01:13:03.170 : en:01:13:03.170
    01:14:16.744 : en:01:14:16.744
    01:23:19.995 : en:01:23:19.995
    01:26:49.621 : en:01:26:49.621
    01:30:16.494 : en:01:30:16.494
    01:35:43.738 : en:01:35:43.738
    01:40:57.927 : en:01:40:57.927
    01:43:07.556 : en:01:43:07.556
    01:44:51.660 : en:01:44:51.660
    01:48:53.610 : en:01:48:53.610
    01:57:41.471 : en:01:57:41.471
    02:02:21.376 : en:02:02:21.376
    02:05:51.461 : en:02:05:51.461
    02:07:26.806 : en:02:07:26.806






    ** Contenuto Nascosto: Schiaccia il bottone RINGRAZIA per visualizzare i link **


    Password: W9uf3209bh0Ped970N
  2. 17 utenti hanno ringraziato PirateMKV per ci˛ che ha scritto.

    4K. (09.02.2017), Aleken12 (3 Settimane Fa), alexmaverick (16.05.2016), blohack (08.11.2016), Carlo-- (2 Settimane Fa), fedeyo (14.08.2016), garu87 (22.10.2016), gerico (16.05.2016), HypnotizeTore (05.09.2016), maxdilix (30.05.2016), Menarello (16.10.2016), metallaroerikilviki (04.09.2016), mongoporno (1 Giorno Fa), ragatak (06.06.2016), rocky1 (2 Settimane Fa), sbirisbiri (08.01.2017), webmagut (21.10.2016)

Permessi di Scrittura

  • Tu non puoi inviare nuove discussioni
  • Tu non puoi inviare risposte
  • Tu non puoi inviare allegati
  • Tu non puoi modificare i tuoi messaggi
  •