HomePage - Come attivare il proprio account - Regole del Forum

HOT NEWS!!!

Ponyo sulla scogliera (2008) BDRip 720p HEVC ITA JAP AC3 ITA Sub PirateMKV

Passengers (2016)


Durante un viaggio verso una nuova casa su un altro pianeta, due passeggeri vengono svegliati 90 anni prima del previsto per un guasto della nave spaziale.


1080p
720p
UNTOUCHED-1080p
BLURAY FULL
BLURAY FULL 3D
Ponyo sulla scogliera (2008) BDRip 720p HEVC ITA JAP AC3 ITA Sub PirateMKV


Avviso a tutti i lettori di mondowarezz.Le sezioni Ebook,Quotidiani e Riviste.Sono momentaneamente chiuse.Vi preghiamo di non intasare la chatbox con le stesse domande.Grazie
Risultati da 1 a 1 di 1
  1. #1
    Status
    Offline
    L'avatar di PirateMKV
    Data Registrazione

    08.04.2015

    Messaggi

    2,781

    Ha ringraziato
    85 volte
    Ha Ricevuto 14,297 ringraziamenti in 2,505 discussioni volte
    Taggato
    1 Post(s)

    Ponyo sulla scogliera (2008) BDRip 720p HEVC ITA JAP AC3 ITA Sub PirateMKV






    Titolo: Ponyo
    Nazione: Japan
    Anno: 2008
    Genere: Animation, Family, Fantasy
    Durata: 101 min
    Regia: Hayao Miyazaki
    Cast: Tomoko Yamaguchi, Kazushige Nagashima, Yûki Amami, Jôji Tokoro


    Dalle profondità del mare emerge una pesciolina rossa a bordo di una medusa. Rimasta intrappolata in un barattolo di vetro, viene soccorsa e liberata da Sosuke, un bimbo di cinque anni che vive con la madre in cima alla scogliera. La gratitudine della pesciolina, che Sosuke battezzerà col nome di Ponyo, si trasforma in tenera amicizia. L'idillio viene però interrotto dall'intervento di Fujimoto, padre di Ponyo e padrone-stregone dei fondali marini. Un tempo umano, Fujimoto ha lasciato la terra per l'acqua prendendo in moglie la Madre del Mare. Decisa a tentare la fuga e a scegliere per sé un destino umano, Ponyo rovescia accidentalmente l'elisir magico del padre, trasformandosi in una bambina e alterando la quiete del mare. Le onde furiose e i pesci giganti la condurranno fino alla casa di Sosuke, dove sarà accolta e amata. Perché il mare si ritiri e restituisca a Ponyo la sua libertà e a Sosuke la sua mamma e il suo villaggio, affondati sotto i marosi, il bambino dovrà affrontare una prova e riportare l'equilibrio tra il genere umano e la natura.

    Nome Versione: PirateMKV
    Fonte Video: BluRay
    Fonte Audio: BluRay



     






     

    General
    Unique ID : 210783357540946004554947548029574927251 (0x9E9365E3C3AF8FACB715F2C0E9575393)
    Complete name : C:\Users\Administrator\Downloads\********************nime\Ponyo sulla scogliera (2008) BDRip 720p HEVC ITA JAP AC3 ITA Sub PirateMKV.mkv
    Format : Matroska
    Format version : Version 4 / Version 2
    File size : 2.60 GiB
    Duration : 1h 42mn
    Overall bit rate : 3 635 Kbps
    Movie name : Ponyo sulla scogliera (2008) - PirateMKV
    Encoded date : UTC 2016-05-12 08:56:25
    Writing application : mkvmerge v9.1.0 ('Little Earthquakes') 64bit
    Writing library : libebml v1.3.3 libmatroska v1.4.4 / Lavf57.36.100

    Video
    ID : 1
    Format : HEVC
    Format/Info : High Efficiency Video Coding
    Format profile : [email protected]@Main
    Codec ID : V_MPEGH/ISO/HEVC
    Duration : 1h 42mn
    Bit rate : 2 801 Kbps
    Width : 1 280 pixels
    Height : 692 pixels
    Display aspect ratio : 1.85:1
    Frame rate mode : Constant
    Frame rate : 23.976 (24000/1001) fps
    Color space : YUV
    Chroma subsampling : 4:2:0
    Bit depth : 8 bits
    Bits/(Pixel*Frame) : 0.132
    Stream size : 2.00 GiB (77%)
    Writing library : x265 1.9:[Windows][GCC 5.2.0][64 bit] 8bit
    Encoding settings : wpp / ctu=64 / min-cu-size=8 / max-tu-size=32 / tu-intra-depth=3 / tu-inter-depth=3 / me=2 / subme=4 / merange=57 / no-rect / no-amp / max-merge=3 / temporal-mvp / no-early-skip / rdpenalty=0 / no-tskip / no-tskip-fast / strong-intra-smoothing / no-lossless / no-cu-lossless / no-constrained-intra / fast-intra / open-gop / no-temporal-layers / interlace=0 / keyint=250 / min-keyint=23 / scenecut=40 / rc-lookahead=40 / lookahead-slices=0 / bframes=8 / bframe-bias=0 / b-adapt=2 / ref=5 / limit-refs=1 / limit-modes / weightp / weightb / aq-mode=1 / qg-size=32 / aq-strength=2.00 / cbqpoffs=0 / crqpoffs=0 / rd=4 / psy-rd=1.00 / rdoq-level=0 / psy-rdoq=0.00 / signhide / deblock=-1:-1 / sao / no-sao-non-deblock / b-pyramid / no-cutree / no-intra-refresh / rc=crf / crf=20.5 / qcomp=0.60 / qpmin=0 / qpmax=51 / qpstep=4 / vbv-maxrate=12000 / vbv-bufsize=12000 / crf-max=0.0 / ipratio=1.40 / pbratio=1.30
    Language : English
    Default : Yes
    Forced : No
    Color range : Limited
    Matrix coefficients : BT.709

    Audio #1
    ID : 2
    Format : AC-3
    Format/Info : Audio Coding 3
    Mode extension : CM (complete main)
    Format settings, Endianness : Big
    Codec ID : A_AC3
    Duration : 1h 42mn
    Bit rate mode : Constant
    Bit rate : 192 Kbps
    Channel(s) : 2 channels
    Channel positions : Front: L R
    Sampling rate : 48.0 KHz
    Frame rate : 31.250 fps (1536 spf)
    Compression mode : Lossy
    Stream size : 140 MiB (5%)
    Title : AC3 2.0
    Language : Italian
    Default : Yes
    Forced : No

    Audio #2
    ID : 3
    Format : AC-3
    Format/Info : Audio Coding 3
    Mode extension : CM (complete main)
    Format settings, Endianness : Big
    Codec ID : A_AC3
    Duration : 1h 42mn
    Bit rate mode : Constant
    Bit rate : 640 Kbps
    Channel(s) : 6 channels
    Channel positions : Front: L C R, Side: L R, LFE
    Sampling rate : 48.0 KHz
    Frame rate : 31.250 fps (1536 spf)
    Compression mode : Lossy
    Stream size : 468 MiB (18%)
    Title : AC3 5.1
    Language : Japanese
    Default : No
    Forced : No

    Text
    ID : 4
    Format : UTF-8
    Codec ID : S_TEXT/UTF8
    Codec ID/Info : UTF-8 Plain Text
    Duration : 1h 36mn
    Bit rate : 36 bps
    Count of elements : 838
    Stream size : 26.0 KiB (0%)
    Title : Normal
    Language : Italian
    Default : No
    Forced : No

    Menu
    00:00:00.000 : en:00:00:00.000
    00:04:34.983 : en:00:04:34.983
    00:09:58.306 : en:00:09:58.306
    00:16:14.098 : en:00:16:14.098
    00:21:02.094 : en:00:21:02.094
    00:27:07.584 : en:00:27:07.584
    00:35:21.369 : en:00:35:21.369
    00:41:21.771 : en:00:41:21.771
    00:48:34.203 : en:00:48:34.203
    00:55:21.652 : en:00:55:21.652
    01:02:00.675 : en:01:02:00.675
    01:08:53.171 : en:01:08:53.171
    01:12:58.833 : en:01:12:58.833
    01:19:22.925 : en:01:19:22.925
    01:24:30.857 : en:01:24:30.857
    01:29:08.885 : en:01:29:08.885
    01:34:54.772 : en:01:34:54.772
    01:39:09.902 : en:01:39:09.902






    ** Contenuto Nascosto: Schiaccia il bottone RINGRAZIA per visualizzare i link **


    Password: W9uf3209bh0Ped970N
  2. 6 utenti hanno ringraziato PirateMKV per ciò che ha scritto.

    einachi (01.11.2016), labronik (24.05.2016), Lorenzo75 (01.07.2016), marbon76 (07.10.2016), Modigliani (19.06.2016), pirata (23.01.2017)

Permessi di Scrittura

  • Tu non puoi inviare nuove discussioni
  • Tu non puoi inviare risposte
  • Tu non puoi inviare allegati
  • Tu non puoi modificare i tuoi messaggi
  •