HomePage - Come attivare il proprio account - Regole del Forum

HOT NEWS!!!

Ppz - Pride and Prejudice and Zombies (2016) BDRip 720p HEVC ITA ENG AC3 ITA ENG Sub PirateMKV

Doctor Strange (2016)


Il neurochirurgo Stephen Strange vede la sua vita cambiare per sempre dopo che un terribile incidente automobilistico lo priva dell’uso delle mani. Quando la medicina tradizionale si dimostra incapace di guarirlo, Strange è costretto cercare una cura in un luogo inaspettato: una misteriosa enclave nota come Kamar-Taj.


1080p
720p
UNTOUCHED-1080p
BLURAY FULL
BLURAY FULL 3D
Ppz - Pride and Prejudice and Zombies (2016) BDRip 720p HEVC ITA ENG AC3 ITA ENG Sub PirateMKV
Risultati da 1 a 1 di 1
  1. #1
    Status
    Offline
    L'avatar di PirateMKV
    Data Registrazione

    08.04.2015

    Messaggi

    2,695

    Ha ringraziato
    80 volte
    Ha Ricevuto 12,546 ringraziamenti in 2,389 discussioni volte
    Taggato
    0 Post(s)

    Ppz - Pride and Prejudice and Zombies (2016) BDRip 720p HEVC ITA ENG AC3 ITA ENG Sub PirateMKV






    Titolo: Pride and Prejudice and Zombies
    Nazione: USA, UK
    Anno: 2016
    Genere: Action, Horror, Romance
    Durata: 107 min
    Regia: Burr Steers
    Cast: Lily James, Sam Riley, Bella Heathcote, Ellie Bamber


    Londra, XIX secolo. Le sorelle Bennet sono in cerca di marito, ma se l'avvenente Jane trova ben presto il promesso sposo, l'intrattabile donna-guerriera Elizabeth incontra maggiori difficoltà. La ragazza sceglie infatti di reprimere i suoi sentimenti per il colonnello Darcy, preferendo provocarlo verbalmente. Intanto la minaccia degli zombi si fa strada verso Londra, rischiando di annientare l'Inghilterra e con lei la razza umana.

    Nome Versione: PirateMKV
    Fonte Video: BluRay
    Fonte Audio: BluRay



     






     

    General
    Unique ID : 250860955029372022515697390456611656231 (0xBCBA10011AF17A6DAECD1FA0C001D227)
    Complete name : C:\Users\Administrator\Downloads\zombie_muxed\Ppz - Pride and Prejudice and Zombies (2016) BDRip 720p HEVC ITA ENG AC3 ITA ENG Sub PirateMKV.mkv
    Format : Matroska
    Format version : Version 4 / Version 2
    File size : 2.07 GiB
    Duration : 1h 47mn
    Overall bit rate : 2 754 Kbps
    Movie name : Ppz - Pride and Prejudice and Zombies (2016) - PirateMKV
    Encoded date : UTC 2016-05-23 15:13:02
    Writing application : mkvmerge v9.1.0 ('Little Earthquakes') 64bit
    Writing library : libebml v1.3.3 libmatroska v1.4.4 / Lavf57.36.100

    Video
    ID : 1
    Format : HEVC
    Format/Info : High Efficiency Video Coding
    Format profile : [email protected]@Main
    Codec ID : V_MPEGH/ISO/HEVC
    Duration : 1h 47mn
    Bit rate : 1 473 Kbps
    Width : 1 280 pixels
    Height : 534 pixels
    Display aspect ratio : 2.40:1
    Original display aspect ratio : 2.40:1
    Frame rate mode : Constant
    Frame rate : 23.976 (24000/1001) fps
    Color space : YUV
    Chroma subsampling : 4:2:0
    Bit depth : 8 bits
    Bits/(Pixel*Frame) : 0.090
    Stream size : 1.11 GiB (53%)
    Writing library : x265 1.9 170-28cf9adfc82e:[Windows][GCC 5.3.0][64 bit] 8bit
    Encoding settings : wpp / ctu=64 / min-cu-size=8 / max-tu-size=32 / tu-intra-depth=3 / tu-inter-depth=3 / me=2 / subme=4 / merange=57 / no-rect / no-amp / max-merge=3 / temporal-mvp / no-early-skip / no-recursion-skip / rdpenalty=0 / no-tskip / no-tskip-fast / strong-intra-smoothing / no-lossless / no-cu-lossless / no-constrained-intra / fast-intra / open-gop / no-temporal-layers / interlace=0 / keyint=250 / min-keyint=23 / scenecut=40 / rc-lookahead=40 / lookahead-slices=0 / bframes=8 / bframe-bias=0 / b-adapt=2 / ref=5 / limit-refs=3 / limit-modes / weightp / weightb / aq-mode=3 / qg-size=32 / aq-strength=2.00 / cbqpoffs=0 / crqpoffs=0 / rd=4 / psy-rd=1.00 / rdoq-level=0 / psy-rdoq=0.00 / no-rd-refine / signhide / deblock=-1:-1 / sao / no-sao-non-deblock / b-pyramid / no-cutree / no-intra-refresh / rc=crf / crf=22.0 / qcomp=0.60 / qpmin=0 / qpmax=51 / qpstep=4 / vbv-maxrate=12000 / vbv-bufsize=12000 / crf-max=0.0 / ipratio=1.40 / pbratio=1.30
    Language : English
    Default : Yes
    Forced : No
    Color range : Limited
    Matrix coefficients : BT.709

    Audio #1
    ID : 2
    Format : AC-3
    Format/Info : Audio Coding 3
    Mode extension : CM (complete main)
    Format settings, Endianness : Big
    Codec ID : A_AC3
    Duration : 1h 47mn
    Bit rate mode : Constant
    Bit rate : 640 Kbps
    Channel(s) : 6 channels
    Channel positions : Front: L C R, Side: L R, LFE
    Sampling rate : 48.0 KHz
    Frame rate : 31.250 fps (1536 spf)
    Compression mode : Lossy
    Stream size : 493 MiB (23%)
    Title : AC3 5.1
    Language : Italian
    Default : Yes
    Forced : No

    Audio #2
    ID : 3
    Format : AC-3
    Format/Info : Audio Coding 3
    Mode extension : CM (complete main)
    Format settings, Endianness : Big
    Codec ID : A_AC3
    Duration : 1h 47mn
    Bit rate mode : Constant
    Bit rate : 640 Kbps
    Channel(s) : 6 channels
    Channel positions : Front: L C R, Side: L R, LFE
    Sampling rate : 48.0 KHz
    Frame rate : 31.250 fps (1536 spf)
    Compression mode : Lossy
    Stream size : 492 MiB (23%)
    Title : AC3 5.1
    Language : English
    Default : No
    Forced : No

    Text #1
    ID : 4
    Format : UTF-8
    Codec ID : S_TEXT/UTF8
    Codec ID/Info : UTF-8 Plain Text
    Duration : 1h 7mn
    Bit rate : 0 bps
    Count of elements : 6
    Stream size : 184 Bytes (0%)
    Title : Forced
    Language : Italian
    Default : Yes
    Forced : Yes

    Text #2
    ID : 5
    Format : UTF-8
    Codec ID : S_TEXT/UTF8
    Codec ID/Info : UTF-8 Plain Text
    Duration : 1mn 57s
    Bit rate : 7 bps
    Count of elements : 2
    Stream size : 106 Bytes (0%)
    Title : Forced
    Language : English
    Default : No
    Forced : No

    Text #3
    ID : 6
    Format : UTF-8
    Codec ID : S_TEXT/UTF8
    Codec ID/Info : UTF-8 Plain Text
    Duration : 1h 40mn
    Bit rate : 65 bps
    Count of elements : 1153
    Stream size : 47.9 KiB (0%)
    Title : Normal
    Language : Italian
    Default : No
    Forced : No

    Text #4
    ID : 7
    Format : UTF-8
    Codec ID : S_TEXT/UTF8
    Codec ID/Info : UTF-8 Plain Text
    Duration : 1h 46mn
    Bit rate : 58 bps
    Count of elements : 1293
    Stream size : 46.0 KiB (0%)
    Title : Normal
    Language : English
    Default : No
    Forced : No

    Text #5
    ID : 8
    Format : UTF-8
    Codec ID : S_TEXT/UTF8
    Codec ID/Info : UTF-8 Plain Text
    Duration : 1h 46mn
    Bit rate : 65 bps
    Count of elements : 1486
    Stream size : 50.9 KiB (0%)
    Title : SDH
    Language : English
    Default : No
    Forced : No

    Menu #1
    00:00:00.000 : en:Chapter 01
    00:06:41.484 : en:Chapter 02
    00:11:50.084 : en:Chapter 03
    00:17:59.870 : en:Chapter 04
    00:24:06.820 : en:Chapter 05
    00:31:52.702 : en:Chapter 06
    00:37:43.594 : en:Chapter 07
    00:44:21.909 : en:Chapter 08
    00:52:06.623 : en:Chapter 09
    00:59:28.314 : en:Chapter 10
    01:05:45.191 : en:Chapter 11
    01:11:16.814 : en:Chapter 12
    01:18:40.674 : en:Chapter 13
    01:25:03.348 : en:Chapter 14
    01:30:18.162 : en:Chapter 15
    01:35:49.410 : en:Chapter 16

    Menu #2
    00:00:00.000 : :Chapter 01
    00:06:41.484 : :Chapter 02
    00:11:50.084 : :Chapter 03
    00:17:59.870 : :Chapter 04
    00:24:06.820 : :Chapter 05
    00:31:52.702 : :Chapter 06
    00:37:43.594 : :Chapter 07
    00:44:21.909 : :Chapter 08
    00:52:06.623 : :Chapter 09
    00:59:28.314 : :Chapter 10
    01:05:45.191 : :Chapter 11
    01:11:16.814 : :Chapter 12
    01:18:40.674 : :Chapter 13
    01:25:03.348 : :Chapter 14
    01:30:18.162 : :Chapter 15
    01:35:49.410 : :Chapter 16






    ** Contenuto Nascosto: Schiaccia il bottone RINGRAZIA per visualizzare i link **


    Password: W9uf3209bh0Ped970N
  2. 2 utenti hanno ringraziato PirateMKV per ciò che ha scritto.

    dadedade (09.06.2016), lollomet (05.07.2016)

Permessi di Scrittura

  • Tu non puoi inviare nuove discussioni
  • Tu non puoi inviare risposte
  • Tu non puoi inviare allegati
  • Tu non puoi modificare i tuoi messaggi
  •